Торрент файл
скачать торрент магнет ссылка Добавлен: 14 янв 2012, 20:48
Размер: 1.45 ГБ
Сидеров: 479
Личеров: 21
Автор

СообщениеДобавлено: 14 янв 2012, 20:48 

Не в сети
Супермодератор
Аватара пользователя
Дата регистрации:
11 апр 2010, 18:10
Спасибо: 5801 / 7
Сообщения: 56779
Зеленый шершень / The Green Hornet

Перевод: Профессиональный (полное дублирование), cубтитры: отсутствуют
Формат: DVDRip-AVC, MKV, H.264, AC3
Страна: США
Режиссер: Мишель Гондри
Жанр: боевик, комедия, криминал
Продолжительность: 01:54:06
Год выпуска: 2011

В ролях: Сет Роген, Джей Чоу, Кристоф Вальц, Кэмерон Диаз, Том Уилкинсон, Дэвид Харбор, Эдвард Джеймс Олмос, Джэми Харрис, Чад Коулмэн, Эдвард Ферлонг

Описание: Сын медиа-магната «прожигает» свою жизнь в вечных пьянках и бесчисленных случайных связях. Но после неожиданной смерти отца он наконец осознает бесцельность своего существования и решает все изменить. Вместе с другом они становятся супергероями, которые борются с преступностью ее же методами, совершенно не считаясь с законом…



Видео: 720x424@1024x424 (2.415), 25.000 fps, AVC MPEG-4 High@L3.1, х264, ~1 440 kbps, 0.189 bit/pixel
Аудио: 48 kHz, AC3 Dolby Digital, 3/2 (L,C,R,l,r) + LFE ch, ~384 kbps

Лицензия
General
Unique ID: 207535632551171831072251067309243007264 (0x9C21E8AF5BE262869827902DD6A48120)
Complete name: E:\РЕЛИЗЫ\Все релизы 11\zeljonyj_shershen_[tfile.ru].mkv
Format: Matroska
File size: 1.45 GiB
Duration: 1h 54mn
Overall bit rate: 1 825 Kbps
Movie name: Zeljonyj Shershen (2011) release by Vaippp [OpenSharing Team]
Encoded date: UTC 2011-02-25 22:28:40
Writing application: mkvmerge v4.4.0 ('Die Wiederkehr') сборка от Oct 31 2010 21:52:48
Writing library: libebml v1.0.0 + libmatroska v1.0.0

Video
ID: 1
Format: AVC
Format/Info: Advanced Video Codec
Format profile: High@L3.1
Format settings, CABAC: Yes
Format settings, ReFrames: 9 frames
Codec ID: V_MPEG4/ISO/AVC
Duration: 1h 54mn
Bit rate: 1 440 Kbps
Width: 720 pixels
Height: 424 pixels
Display aspect ratio: 2.40:1
Frame rate: 25.000 fps
Color space: YUV
Chroma subsampling: 4:2:0
Bit depth: 8 bits
Scan type: Progressive
Bits/(Pixel*Frame): 0.189
Stream size: 1.12 GiB (77%)
Title: DVDRip by Vaippp
Writing library: x264 core 112 r1867 22bfd31
Encoding settings: cabac=1 / ref=9 / deblock=1:-2:-1 / analyse=0x3:0x113 / me=umh / subme=9 / psy=1 / psy_rd=1.00:0.10 / mixed_ref=1 / me_range=32 / chroma_me=1 / trellis=1 / 8x8dct=1 / cqm=0 / deadzone=21,11 / fast_pskip=0 / chroma_qp_offset=-3 / threads=4 / sliced_threads=0 / nr=0 / decimate=1 / interlaced=0 / constrained_intra=0 / bframes=8 / b_pyramid=2 / b_adapt=2 / b_bias=0 / direct=3 / weightb=1 / open_gop=0 / weightp=2 / keyint=250 / keyint_min=25 / scenecut=40 / intra_refresh=0 / rc_lookahead=40 / rc=2pass / mbtree=0 / bitrate=1440 / ratetol=1.0 / qcomp=0.70 / qpmin=10 / qpmax=51 / qpstep=4 / cplxblur=20.0 / qblur=0.5 / vbv_maxrate=8000 / vbv_bufsize=12000 / nal_hrd=none / ip_ratio=1.40 / pb_ratio=1.30 / aq=1:1.00 / zones=160057,171170,q=35
Language: English

Audio
ID: 2
Format: AC-3
Format/Info: Audio Coding 3
Mode extension: CM (complete main)
Codec ID: A_AC3
Duration: 1h 54mn
Bit rate mode: Constant
Bit rate: 384 Kbps
Channel(s): 6 channels
Channel positions: Front: L C R, Side: L R, LFE
Sampling rate: 48.0 KHz
Bit depth: 16 bits
Compression mode: Lossy
Stream size: 313 MiB (21%)
Title: DUB
Language: Russian






[/shots]












Поделиться:




реклама партнёра


Вернуться к началу
 Профиль Отправить личное сообщение  
 
   Похожие торренты   Автор   Торрент   Размер 
В этой теме нет новых непрочитанных сообщений. Зеленый ад / The Green Inferno (Элай Рот) [Ужасы, приключения, 2013] WEB-DLRip, dvo

Dracon

433 | 28

1.37 ГБ

В этой теме нет новых непрочитанных сообщений. Зеленый ад / The Green Inferno (Элай Рот) [Ужасы, приключения, 2013] WEB-DL 720p, avo

Dracon

937 | 79

3.05 ГБ

В этой теме нет новых непрочитанных сообщений. Зеленый ад / The Green Inferno (Элай Рот) [Ужасы, приключения, 2013] WEB-DLRip, avo

Dracon

4549 | 160

1.37 ГБ

В этой теме нет новых непрочитанных сообщений. Драконы Нью-Йорка / Revenge of the Green Dragons (Вэй Кеунг Лау, Эндрю Лу) [Боевик, драма, криминал, 2014] НDRip, Dvo

Dracon

414 | 13

1.37 ГБ

В этой теме нет новых непрочитанных сообщений. Мишель Вальян: Жажда скорости / Michel Vaillant [боевик, спорт, 2003] DVDRip, Mvo

salma3

4 | 2

1.37 ГБ

В этой теме нет новых непрочитанных сообщений. Драконы Нью-Йорка / Revenge of the Green Dragons (Вэй Кеунг Лау, Эндрю Лу) [Боевик, драма, криминал, 2014] НDRip, dub [Чистый звук]

Dracon

5534 | 265

1.37 ГБ

В этой теме нет новых непрочитанных сообщений. Драконы Нью-Йорка / Revenge of the Green Dragons (Вэй Кеунг Лау, Эндрю Лу) [Боевик, драма, криминал, 2014] BDRip 720p, dub [Чистый звук]

Dracon

88 | 63

4.81 ГБ


Начать новую тему Ответить на тему  [ 1 сообщение ] 




Для Мосгорсуда, Роскомнадзора и рекламодателей:: mosgorsud-torrent[собачка]yandex.ru