Торрент файл
скачать торрент магнет ссылка Добавлен: 14 янв 2012, 20:44
Размер: 1.69 ГБ
Сидеров: 7
Личеров: 4
Автор

СообщениеДобавлено: 14 янв 2012, 20:44 

Не в сети
Супермодератор
Аватара пользователя
Дата регистрации:
11 апр 2010, 18:10
Спасибо: 5888 / 7
Сообщения: 56778
S.W.A.T.: Огненная буря / S.W.A.T.: Firefight



Перевод: Профессиональный (многоголосый, закадровый), cубтитры: русские
Формат: HDRip-AVC, MKV, H.264, AC3
Страна: США
Режиссер: Бенни Бум
Жанр: боевик, триллер, криминал
Продолжительность: 01:28:38
Год выпуска: 2011

В ролях: Гэбриел Махт, Роберт Патрик, Кристанна Локен, Николас Гонзалез, Карли Поуп, Джанкарло Эспозито, Шеннон Кэйн, Мэтт Бушнелл, Джино Энтони Песи, Эли Бардха

Описание: Сюжет строится на переводе лейтенанта Лос-Анджелесской полиции Пола Катлера в Детройт, где он должен натренировать команду местных спецназовцев. Однако, рутинная миссия оказывается ловушкой, подстроенной охраняемым государством одержимого гения, избравшего Катлера своей мишенью.



Видео: 1024 x 576 (1.77, 23.976 fps, AVC, High@L4.1, х264, ~ 1 965 Kbps Kbps, 0.139 bit/pixel
Аудио: #1: русский 48 kHz, AC3 Dolby Digital, 3/2 (L,C,R,l,r) + LFE ch, ~384 kbps [Профессиональный (многоголосый, закадровый)]
Аудио: #2: английский 48 kHz, AC3 Dolby Digital, 3/2 (L,C,R,l,r) + LFE ch, ~384 kbps [оригинал]

[Лицензия]
General
Unique ID: 199774501106445859384076204550851224461 (0x964B2B5C86C96415ABE1B373E5A1638D)
Complete name: E:\РЕЛИЗЫ\Все релизы 12\s_w_a_t_firefight_[tfile.ru]\s_w_a_t_firefight_[tfile.ru].mkv
Format: Matroska
File size: 1.45 GiB
Duration: 1h 28mn
Overall bit rate: 2 346 Kbps
Movie name: S.W.A.T.: Firefight.chopper887
Encoded date: UTC 2011-03-19 17:15:41
Writing application: mkvmerge v4.4.0 ('Die Wiederkehr') built on Nov7 2010 22:17:07
Writing library: libebml v1.0.0 + libmatroska v1.0.0

Video
ID: 1
Format: AVC
Format/Info: Advanced Video Codec
Format profile: High@L4.1
Format settings, CABAC: Yes
Format settings, ReFrames: 10 frames
Format settings, GOP: M=2, N=32
Muxing mode: Header stripping
Codec ID: V_MPEG4/ISO/AVC
Duration: 1h 28mn
Bit rate: 1 965 Kbps
Width: 1 024 pixels
Height: 576 pixels
Display aspect ratio: 16:9
Frame rate: 23.976 fps
Color space: YUV
Chroma subsampling: 4:2:0
Bit depth: 8 bits
Scan type: Progressive
Bits/(Pixel*Frame): 0.139
Stream size: 1.19 GiB (82%)
Title: S.W.A.T.: Firefight.chopper887
Writing library: x264 core 112 r1867 22bfd31
Encoding settings: cabac=1 / ref=10 / deblock=1:-2:-1 / analyse=0x3:0x133 / me=umh / subme=9 / psy=1 / psy_rd=1.00:0.10 / mixed_ref=1 / me_range=32 / chroma_me=0 / trellis=2 / 8x8dct=1 / cqm=0 / deadzone=21,11 / fast_pskip=0 / chroma_qp_offset=-3 / threads=3 / sliced_threads=0 / nr=0 / decimate=1 / interlaced=0 / constrained_intra=0 / bframes=9 / b_pyramid=2 / b_adapt=2 / b_bias=0 / direct=3 / weightb=1 / open_gop=0 / weightp=2 / keyint=250 / keyint_min=23 / scenecut=40 / intra_refresh=0 / rc_lookahead=60 / rc=2pass / mbtree=1 / bitrate=1965 / ratetol=1.0 / qcomp=0.70 / qpmin=10 / qpmax=51 / qpstep=4 / cplxblur=20.0 / qblur=0.5 / ip_ratio=1.40 / aq=1:1.00
Language: English

Audio
ID: 2
Format: AC-3
Format/Info: Audio Coding 3
Mode extension: CM (complete main)
Muxing mode: Header stripping
Codec ID: A_AC3
Duration: 1h 28mn
Bit rate mode: Constant
Bit rate: 384 Kbps
Channel(s): 6 channels
Channel positions: Front: L C R, Side: L R, LFE
Sampling rate: 48.0 KHz
Bit depth: 16 bits
Compression mode: Lossy
Stream size: 243 MiB (16%)
Title: Многоголоска

Text
ID: 3
Format: UTF-8
Codec ID: S_TEXT/UTF8
Codec ID/Info: UTF-8 Plain Text
Title: Русские
















Поделиться:




реклама партнёра


Вернуться к началу
 Профиль Отправить личное сообщение  
 
   Похожие торренты   Автор   Торрент   Размер 
В этой теме нет новых непрочитанных сообщений. Огненная буря / Firestorm / Fung bou [боевик, криминал, 2013] HDRip, Dvo

salma3

256 | 8

1.46 ГБ

В этой теме нет новых непрочитанных сообщений. Огненная буря / Firestorm / Fung bou [боевик, криминал, 2013] BDRip 720p, Dvo

salma3

62 | 6

4.51 ГБ

В этой теме нет новых непрочитанных сообщений. Огненная стена / Firewall [Триллер, криминал, 2006] BDRip 720p, Dub+Dvo+Avo

salma3

56 | 23

4.36 ГБ

В этой теме нет новых непрочитанных сообщений. Огненная дрожь / Firequake [фантастика, боевик, триллер, 2014] DVDRip, Mvo

salma3

319 | 16

1.46 ГБ

В этой теме нет новых непрочитанных сообщений. Рейд: Дилогия / The Raid: Redemption / Serbuan maut: Dilogy [боевик, триллер, криминал, 2011-2014] HDRip, Dub

salma3

141 | 17

2.91 ГБ

В этой теме нет новых непрочитанных сообщений. Karos Online: Огненная Земля [16.06.2014] [MMORPG, 2011] [Лицензия]

druid81max

0 | 2

1.12 ГБ

В этой теме нет новых непрочитанных сообщений. Blackguard - Firefight [2011, Folk Metal, Melodic Death Metal, MP3]

PriZraK

0 | 1

99.83 МБ


Начать новую тему Ответить на тему  [ 1 сообщение ] 




Для Мосгорсуда, Роскомнадзора и рекламодателей:: mosgorsud-torrent[собачка]yandex.ru