Торрент файл
скачать торрент магнет ссылка Добавлен: 14 янв 2012, 20:35
Размер: 1.68 ГБ
Сидеров: 11
Личеров: 4
Автор

СообщениеДобавлено: 14 янв 2012, 20:35 

Не в сети
Супермодератор
Аватара пользователя
Дата регистрации:
11 апр 2010, 18:10
Спасибо: 5799 / 7
Сообщения: 56779
Смертельный список / The Hit List

Перевод: Профессиональный (многоголосый закадровый), cубтитры: английские
Формат: HDRip-AVC,MKV, H.264, AC3
Страна: США
Режиссер: Уильям Кауфман
Жанр: боевик, триллер
Продолжительность: 01:30:08
Год выпуска: 2011

В ролях: Кьюба Гудинг мл., Коул Хаузер, Джонатан ЛаПалья, Джинни Вейрик, Дрю Уотерс, Шон Кук, Майкл Пападжон, Дж.П. О’Шонесси, Дэвид Эндриол, Брэндон О’Нейлл

Описание: Однажды вечером бизнесмен Аллан Кэмпбелл, раздавленный чередой обрушившихся на него неприятностей, знакомится с таинственным незнакомцем Джонасом Арбором. Джонас представляется… профессиональным наемником и предлагает Аллану убить пятерых — на его выбор и совершенно бесплатно. Расценив предложение как неудачную шутку, Аллан составляет список жертв. Но уже на следующий день попавшие в злополучный перечень начинают по очереди погибать… Преследуемый полицией и мучимый чувством вины, Аллан бросается наперегонки со временем, чтобы помешать убийце — ведь за месть всегда приходится расплачиваться.



Видео: 1280 x 720 (1.77, 23.976 fps, AVC, х264 High@L4.1, ~2 160 kbps avg, 0.098 bit/pixel
Аудио: 48 kHz, AC3 Dolby Digital, 3/2 (L,C,R,l,r) + LFE ch, ~448 kbps

Лицензия
General
Unique ID: 216914346923335109038003104594901862807 (0xA3302F011C204A1CB2D077E41E440997)
Complete name: E:\РЕЛИЗЫ\Все релизы 15\smertelnui_spisok_[tfile.ru].mkv
Format: Matroska
File size: 1.68 GiB
Duration: 1h 30mn
Overall bit rate: 2 661 Kbps
Movie name: Смертельный список / The Hit List (2011) BDRip 720p от FireBit
Encoded date: UTC 2011-05-12 20:53:45
Writing application: mkvmerge v2.3.0 ('Freak U') built on Sep8 2008 18:32:16
Writing library: libebml v0.7.7 + libmatroska v0.8.1

Video
ID: 1
Format: AVC
Format/Info: Advanced Video Codec
Format profile: High@L4.1
Format settings, CABAC: Yes
Format settings, ReFrames: 3 frames
Format settings, GOP: M=1, N=8
Codec ID: V_MPEG4/ISO/AVC
Duration: 1h 30mn
Bit rate mode: Variable
Bit rate: 2 160 Kbps
Maximum bit rate: 20.0 Mbps
Width: 1 280 pixels
Height: 720 pixels
Display aspect ratio: 16:9
Frame rate: 23.976 fps
Color space: YUV
Chroma subsampling: 4:2:0
Bit depth: 8 bits
Scan type: Progressive
Bits/(Pixel*Frame): 0.098
Stream size: 1.36 GiB (81%)
Language: English
Color primaries: BT.709-5, BT.1361, IEC 61966-2-4, SMPTE RP177
Transfer characteristics: BT.709-5, BT.1361
Matrix coefficients: BT.709-5, BT.1361, IEC 61966-2-4 709, SMPTE RP177

Audio
ID: 2
Format: AC-3
Format/Info: Audio Coding 3
Mode extension: CM (complete main)
Codec ID: A_AC3
Duration: 1h 30mn
Bit rate mode: Constant
Bit rate: 448 Kbps
Channel(s): 6 channels
Channel positions: Front: L C R, Side: L R, LFE
Sampling rate: 48.0 KHz
Bit depth: 16 bits
Compression mode: Lossy
Delay relative to video: 23ms
Stream size: 289 MiB (17%)
Language: Russian

Text #1
ID: 3
Format: UTF-8
Codec ID: S_TEXT/UTF8
Codec ID/Info: UTF-8 Plain Text
Title: http://firebit.org
Language: English

Text #2
ID: 4
Format: UTF-8
Codec ID: S_TEXT/UTF8
Codec ID/Info: UTF-8 Plain Text
Language: English

Text #3
ID: 5
Format: UTF-8
Codec ID: S_TEXT/UTF8
Codec ID/Info: UTF-8 Plain Text
Language: English















Поделиться:




реклама партнёра


Вернуться к началу
 Профиль Отправить личное сообщение  
 
   Похожие торренты   Автор   Торрент   Размер 
В этой теме нет новых непрочитанных сообщений. Список смертников / Kill List [ужасы, триллер, 2011] HDRip, Mvo

salma3

204 | 28

1.46 ГБ

В этой теме нет новых непрочитанных сообщений. Морской пехотинец 4 / The Marine 4: Moving Target (Уильям Кауфман) [Боевик, Триллер, 2015] HDRip, Mvo [iTunes]

Dracon

10 | 2

1.37 ГБ

В этой теме нет новых непрочитанных сообщений. Список приговоренных / Hit List [Боевик, триллер, 1989] TVRip, Dub

salma3

2 | 1

1.4 ГБ

В этой теме нет новых непрочитанных сообщений. Список смертников / Kill List [ужасы, триллер, 2011] BDRip 720p, Mvo

salma3

11 | 2

4.33 ГБ

В этой теме нет новых непрочитанных сообщений. Список смертников / Kill List [ужасы, триллер, 2011] BDRip 1080p, Mvo

salma3

2 | 2

10.94 ГБ

В этой теме нет новых непрочитанных сообщений. Морской пехотинец 4 / The Marine 4: Moving Target (Уильям Кауфман) [Боевик, Триллер, 2015] BDRip 1080p, Mvo [iTunes]

Dracon

199 | 16

6.8 ГБ

В этой теме нет новых непрочитанных сообщений. Морской пехотинец 4 / The Marine 4: Moving Target (Уильям Кауфман) [Боевик, Триллер, 2015] BDRip 720p, Mvo [iTunes]

Dracon

90 | 7

3.9 ГБ


Начать новую тему Ответить на тему  [ 1 сообщение ] 




Для Мосгорсуда, Роскомнадзора и рекламодателей:: mosgorsud-torrent[собачка]yandex.ru