Торрент файл
скачать торрент магнет ссылка Добавлен: 14 янв 2012, 20:29
Размер: 2.08 ГБ
Сидеров: 50
Личеров: 7
Автор

СообщениеДобавлено: 14 янв 2012, 20:29 

Не в сети
Супермодератор
Аватара пользователя
Дата регистрации:
11 апр 2010, 18:10
Спасибо: 5801 / 7
Сообщения: 56779
Гнев / Man on Fire



Перевод: Профессиональный (полное дублирование), cубтитры: отсутствуют
Формат: HDRip-AVC, MKV, H.264, AC3
Страна: США, Великобритания
Режиссер: Тони Скотт
Жанр: боевик, триллер, драма, криминал
Продолжительность: 02:26:07
Год выпуска: 2004

В ролях: Дензел Вашингтон, Дакота Фаннинг, Марк Энтони, Рада Митчел, Кристофер Уокен, Джанкарло Джаннини, Рейчел Тикотин, Иисус Очоа, Микки Рурк, Анджелина Пелаез

Описание: Состоятельные жители Мехико в панике: всего за шесть дней в городе пропали 24 человека! Бывшего агента ЦРУ Джона Кризи нанимают телохранителем девятилетней дочери промышленника Сэмюэля Рамоса, Питы Рамос. Поначалу Кризи с трудом терпит соседство не по годам развитой девочки.
Но со временем они становятся друзьями. Кризи вновь почувствовал вкус к жизни, но все рушится, когда Питу похищают. Кризи клянется убить любого, кто втянут в похищение Питы. Теперь его никто не остановит…




Видео: 1088 x 456 (2.39:1), 23.976 fps, AVC, х264, High@L4.1, ~ 1587 Kbps Kbps, 0.133 bit/pixel
Аудио: 48 kHz, AC3 Dolby Digital, 3/2 (L,C,R,l,r) + LFE ch, ~448 kbps


Рип: jeenart
General
Unique ID: 216485979944675255741646597166971990921 (0xA2DDAEE1B582F13BAAB6D83A9AF7B389)
Complete name: F:\Мои релизы\Все релизы 9\man_on_fire_[tfile.ru].mkv
Format: Matroska
File size: 2.08 GiB
Duration: 2h 26mn
Overall bit rate: 2 036 Kbps
Encoded date: UTC 2011-06-10 10:06:24
Writing application: mkvmerge v4.6.0 ('Still Crazy After All These Years') сборка от Apr1 2011 21:01:49
Writing library: libebml v1.2.0 + libmatroska v1.1.0

Video
ID: 1
Format: AVC
Format/Info: Advanced Video Codec
Format profile: High@L4.1
Format settings, CABAC: Yes
Format settings, ReFrames: 3 frames
Codec ID: V_MPEG4/ISO/AVC
Duration: 2h 26mn
Bit rate: 1 587 Kbps
Width: 1 088 pixels
Height: 456 pixels
Display aspect ratio: 2.35:1
Frame rate: 23.976 fps
Color space: YUV
Chroma subsampling: 4:2:0
Bit depth: 8 bits
Scan type: Progressive
Bits/(Pixel*Frame): 0.133
Stream size: 1.58 GiB (76%)
Writing library: x264 core 115 r1937 aa21558
Encoding settings: cabac=1 / ref=3 / deblock=1:-1:-1 / analyse=0x3:0x113 / me=dia / subme=7 / psy=1 / psy_rd=1.00:0.10 / mixed_ref=1 / me_range=16 / chroma_me=1 / trellis=1 / 8x8dct=1 / cqm=0 / deadzone=21,11 / fast_pskip=1 / chroma_qp_offset=-3 / threads=6 / sliced_threads=0 / nr=0 / decimate=1 / interlaced=0 / bluray_compat=0 / constrained_intra=0 / bframes=1 / b_pyramid=0 / b_adapt=0 / b_bias=0 / direct=0 / weightb=1 / open_gop=0 / weightp=0 / keyint=250 / keyint_min=23 / scenecut=40 / intra_refresh=0 / rc_lookahead=40 / rc=2pass / mbtree=1 / bitrate=1587 / ratetol=1.0 / qcomp=0.60 / qpmin=0 / qpmax=69 / qpstep=4 / cplxblur=20.0 / qblur=0.5 / ip_ratio=1.40 / aq=1:1.00

Audio
ID: 2
Format: AC-3
Format/Info: Audio Coding 3
Mode extension: CM (complete main)
Codec ID: A_AC3
Duration: 2h 26mn
Bit rate mode: Constant
Bit rate: 448 Kbps
Channel(s): 6 channels
Channel positions: Front: L C R, Side: L R, LFE
Sampling rate: 48.0 KHz
Bit depth: 16 bits
Compression mode: Lossy
Stream size: 468 MiB (22%)




















Поделиться:




реклама партнёра


Вернуться к началу
 Профиль Отправить личное сообщение  
 
   Похожие торренты   Автор   Торрент   Размер 
В этой теме нет новых непрочитанных сообщений. Я есть гнев / I Am Wrath [боевик, триллер, драма, криминал, 2016] HDRip, dvo

marya111

3794 | 419

1.41 ГБ

В этой теме нет новых непрочитанных сообщений. Гнев / Tokarev (Пако Кабесас) [Боевик, триллер, криминал, 2014] HDRip, Dub [iTunes]

Dracon

21 | 6

1.46 ГБ

В этой теме нет новых непрочитанных сообщений. Гнев / Tokarev (Пако Кабесас) [Боевик, триллер, криминал, 2014] HDRip, Dub [Лицензия]

Dracon

2052 | 92

1.46 ГБ

В этой теме нет новых непрочитанных сообщений. Я есть гнев / I Am Wrath [Боевик, триллер, драма, криминал, 2016] WEB-DLRip, Dvo

salma3

466 | 14

1.37 ГБ

В этой теме нет новых непрочитанных сообщений. Я есть гнев / I Am Wrath (Боевик, триллер, драма, криминал, 2016) BDRip от Kaztorrents | КПК | A

marya111

256 | 45

582.28 МБ

В этой теме нет новых непрочитанных сообщений. Я есть гнев / I Am Wrath (Боевик, триллер, драма, криминал, 2016) BDRip от MegaPeer | A

marya111

4101 | 399

1.46 ГБ

В этой теме нет новых непрочитанных сообщений. Я есть гнев / I Am Wrath [Боевик, триллер, драма, криминал, 2016] BDRip 1080p, Mvo+Sub

salma3

324 | 116

5.21 ГБ


Начать новую тему Ответить на тему  [ 1 сообщение ] 




Для Мосгорсуда, Роскомнадзора и рекламодателей:: mosgorsud-torrent[собачка]yandex.ru