Торрент файл
скачать торрент магнет ссылка Добавлен: 14 янв 2012, 20:26
Размер: 1.74 ГБ
Сидеров: 3
Личеров: 4
Автор

СообщениеДобавлено: 14 янв 2012, 20:26 

Не в сети
Супермодератор
Аватара пользователя
Дата регистрации:
11 апр 2010, 18:10
Спасибо: 5960 / 7
Сообщения: 56765
Белый слон / Elephant White

Перевод: Любительский (двухголосый)НТВ+, cубтитры: английские
Формат: HDRip-AVC, MKV, H.264, AC3
Страна: США
Режиссер: Прачья Пинкаю
Жанр: боевик, триллер
Продолжительность: 01:31:30
Год выпуска: 2011

В ролях: Кевин Бейкон, Джимон Хунсу, Рон Смуренбург, Байрон Гибсон, Крейтон Марк Джонсон.

Описание: Наемники, страшная и тяжелая работа. Перед нами история одного из наемников, который, повстречав в Таиланде 14-летнюю девочку, кардинально меняет свои взгляды на жизнь…

[/field]

Видео: 1024х440 (2.35:1), 23.976 fps, AVC, х264, High@L4.1, ~ 2082kbps avg, 0.193 bit/pixel

Audio #1:Русский:48 kHz, AC3,2 ch,~192 kbps Любительский (двухголосый)

Audio #2:Английский:48 kHz, AC3,6 ch,~448 kbps [Оригинал][/field]

Релиз группа:

General
Unique ID: 241775284480635495687207684863173224939 (0xB5E439DC684A984AA80D32D6666669EB)
Complete name: E:\Загрузки\Belyj.slon.2011.x264.BDRip.(AVC).NovaLan.mkv
Format: Matroska
File size: 1.74 GiB
Duration: 1h 31mn
Overall bit rate: 2 719 Kbps
Movie name: NovaLan (Vladislav71)
Encoded date: UTC 2011-05-18 02:44:48
Writing application: mkvmerge v4.0.0 ('The Stars were mine') сборка от Jun6 2010 16:18:42
Writing library: libebml v1.0.0 + libmatroska v1.0.0

Video
ID: 1
Format: AVC
Format/Info: Advanced Video Codec
Format profile: High@L4.1
Format settings, CABAC: Yes
Format settings, ReFrames: 8 frames
Codec ID: V_MPEG4/ISO/AVC
Duration: 1h 31mn
Bit rate: 2 082 Kbps
Width: 1 024 pixels
Height: 440 pixels
Display aspect ratio: 2.35:1
Frame rate: 23.976 fps
Color space: YUV
Chroma subsampling: 4:2:0
Bit depth: 8 bits
Scan type: Progressive
Bits/(Pixel*Frame): 0.193
Stream size: 1.29 GiB (74%)
Writing library: x264 core 92 r1510 33d382a
Encoding settings: cabac=1 / ref=8 / deblock=1:-1:-1 / analyse=0x3:0x133 / me=umh / subme=7 / psy=1 / psy_rd=1.00:0.10 / mixed_ref=1 / me_range=16 / chroma_me=1 / trellis=2 / 8x8dct=1 / cqm=0 / deadzone=21,11 / fast_pskip=0 / chroma_qp_offset=-3 / threads=3 / sliced_threads=0 / nr=0 / decimate=1 / interlaced=0 / constrained_intra=0 / bframes=3 / b_pyramid=2 / b_adapt=2 / b_bias=0 / direct=3 / wpredb=1 / wpredp=2 / keyint=250 / keyint_min=25 / scenecut=40 / intra_refresh=0 / rc_lookahead=50 / rc=2pass / mbtree=1 / bitrate=2082 / ratetol=1.0 / qcomp=0.60 / qpmin=10 / qpmax=51 / qpstep=4 / cplxblur=20.0 / qblur=0.5 / ip_ratio=1.40 / aq=1:1.00

Audio #1
ID: 2
Format: AC-3
Format/Info: Audio Coding 3
Mode extension: CM (complete main)
Codec ID: A_AC3
Duration: 1h 31mn
Bit rate mode: Constant
Bit rate: 192 Kbps
Channel(s): 2 channels
Channel positions: Front: L R
Sampling rate: 48.0 KHz
Bit depth: 16 bits
Compression mode: Lossy
Stream size: 126 MiB (7%)
Language: Russian

Audio #2
ID: 3
Format: AC-3
Format/Info: Audio Coding 3
Mode extension: CM (complete main)
Codec ID: A_AC3
Duration: 1h 31mn
Bit rate mode: Constant
Bit rate: 448 Kbps
Channel(s): 6 channels
Channel positions: Front: L C R, Side: L R, LFE
Sampling rate: 48.0 KHz
Bit depth: 16 bits
Compression mode: Lossy
Stream size: 293 MiB (16%)
Language: English

Text
ID: 4
Format: UTF-8
Codec ID: S_TEXT/UTF8
Codec ID/Info: UTF-8 Plain Text








Поделиться:




реклама партнёра


Вернуться к началу
 Профиль Отправить личное сообщение  
 
   Похожие торренты   Автор   Торрент   Размер 
В этой теме нет новых непрочитанных сообщений. Слон / Elephant [драма, 2003] BDRip 720p, Dvo

salma3

9 | 2

4.85 ГБ

В этой теме нет новых непрочитанных сообщений. Белый клык 2: Легенда о белом волке / White Fang 2: Myth of the White Wolf [приключения, семейный, 1994] WEB-DL 720p, Mvo

salma3

176 | 84

3.38 ГБ

В этой теме нет новых непрочитанных сообщений. Белый призрак / White Ghost [Боевик, приключения, военный, 1988] BDRip-AVC, Mvo

salma3

58 | 39

2.78 ГБ

В этой теме нет новых непрочитанных сообщений. Смертельный бой / Белый тигр / Death Fighter / White Tiger [боевик, 2017] DVDRip, Mvo

salma3

1182 | 189

1.37 ГБ

В этой теме нет новых непрочитанных сообщений. Белый призрак / White Ghost [боевик, приключения, военный, 1988] BDRemux 1080р, Mvo

salma3

22 | 10

20.8 ГБ

В этой теме нет новых непрочитанных сообщений. Белый призрак / White Ghost [Боевик, приключения, военный, 1988] BDRip 1080p, Mvo

salma3

12 | 13

13.48 ГБ

В этой теме нет новых непрочитанных сообщений. Белый олеандр / White oleander [Драма, экранизация, 2002] WEB-DL 720p, Dub+Sub

salma3

120 | 31

3.82 ГБ


Начать новую тему Ответить на тему  [ 1 сообщение ] 




Для Мосгорсуда, Роскомнадзора и рекламодателей:: mosgorsud-torrent[собачка]yandex.ru