Торрент файл
скачать торрент магнет ссылка Добавлен: 14 янв 2012, 20:25
Размер: 737.98 МБ
Сидеров: 3
Личеров: 5
Автор

СообщениеДобавлено: 14 янв 2012, 20:25 

Не в сети
Супермодератор
Аватара пользователя
Дата регистрации:
11 апр 2010, 18:10
Спасибо: 5799 / 7
Сообщения: 56779
База 2: Виновен по предписанию / Guilty as Charged


Перевод: Профессиональный (двухголосый), cубтитры: отсутствуют
Формат: DVDRip, AVI, XviD, AC3
Страна: США
Режиссер: Марк Л. Лестер
Жанр: боевик, приключения
Продолжительность: 01:32:45
Год выпуска: 2000
В ролях: Антонио Сабато мл., Джеймс Римар, Дуан Дэвис, Юдзи Окумото, Мелисса Льюис, Элайджа Магар, Эмилио Ривера, Джонни Урбон, Уильям Джонс, Дерон Макби

Описание: Лейтенант отряда особого назначения Джон Мерфи получает задание разобраться, как целый ряд бесследно исчезнувших солдат и офицеров был оправдан военным трибуналом несмотря на совершенное воинское преступление.

Под видом новобранца он зачисляется в элитный отряд базы и подбирается к разгадке страшной тайны, не подозревая, что следующей жертвой маньяков, устраивающих охоту на людей, будет он сам.






Видео: 576x432 (1.33:1), 25 fps, XviD MPEG-4 ~878 kbps avg, 0.14 bit/pixel
Аудио: 48 kHz, AC3 Dolby Digital, 2/0 (L,R) ch, ~224.00 kbps avg




Общее
Полное имя : D:\Торренты\ФИЛЬМЫ торента\Baza.2.Vinoven.po.predpisaniuy.2000.DVDRip.avi
Формат : AVI
Формат/Информация : Audio Video Interleave
Размер файла : 738 Мбайт
Продолжительность : 1 ч. 32 м.
Общий поток : 1112 Кбит/сек
Программа кодирования : VirtualDubMod 1.5.10.2 (build 2542/release)
Библиотека кодирования : VirtualDubMod build 2542/release

Видео
Идентификатор : 0
Формат : MPEG-4 Visual
Профиль формата : Advanced Simple@L5
Параметр BVOP формата : 2
Параметр QPel формата : Нет
Параметр GMC формата : Без точки перехода
Параметр матрицы формата : Default (H.263)
Режим смешивания : Сжатый битовый поток
Идентификатор кодека : XVID
Идентификатор кодека/Подсказка : XviD
Продолжительность : 1 ч. 32 м.
Битрейт : 879 Кбит/сек
Ширина : 576 пикс.
Высота : 432 пикс.
Соотношение сторон : 4:3
Частота кадров : 25,000 кадр/сек
Цветовое пространство : YUV
Подвыборка цветности : 4:2:0
Битовая глубина : 8 бит
Тип развёртки : Прогрессивная
Метод сжатия : С потерями
Бит/(Пиксели*Кадры) : 0.141
Размер потока : 583 Мбайт (79%)
Библиотека кодирования : XviD 1.2.0.dev47 (UTC 2006-11-01)

Аудио
Идентификатор : 1
Формат : AC-3
Формат/Информация : Audio Coding 3
Расширение режима : CM (complete main)
Идентификатор кодека : 2000
Продолжительность : 1 ч. 32 м.
Вид битрейта : Постоянный
Битрейт : 224 Кбит/сек
Каналы : 2 канала
Расположение каналов : Front: L R
Частота : 48,0 КГц
Битовая глубина : 16 бит
Метод сжатия : С потерями
Размер потока : 149 Мбайт (20%)
Выравнивание : Разделение по промежуткам
Продолжительность промежутка : 40 мс. (1,00 видеокадр)
Время предзагрузки промежутка : 500 ms





Поделиться:




реклама партнёра


Вернуться к началу
 Профиль Отправить личное сообщение  
 
   Похожие торренты   Автор   Торрент   Размер 
В этой теме нет новых непрочитанных сообщений. База 2: Виновен по предписанию / Guilty as Charged [боевик, приключения, 2000] DVDRip, Dvo

salma3

48 | 3

1.37 ГБ

В этой теме нет новых непрочитанных сообщений. Виновен вне подозрений / Guilty As Sin [Триллер, драма, криминал, 1993] DVDRip-AVC, Dvo+Avo

salma3

196 | 76

3.02 ГБ

В этой теме нет новых непрочитанных сообщений. Виновен вне подозрений / Guilty As Sin [драма, криминал, 1993] WEB-DL 720p, Dvo+Avo

salma3

148 | 47

3.76 ГБ

В этой теме нет новых непрочитанных сообщений. Виновен по подозрению / Guilty by Suspicion [Драма, триллер, 1991] WEB-DLRip, Avo

salma3

18 | 0

1.45 ГБ

В этой теме нет новых непрочитанных сообщений. База Куантико / Quantico [01х01-06 из 19] (Марк Манден, Стефен Т. Кэй) [2015, триллер, драма, криминал, детектив, WEB-DLRip | Amedia]

Dracon

21 | 56

3.32 ГБ

В этой теме нет новых непрочитанных сообщений. База Куантико / Quantico [01х01-02 из 19] (Марк Манден, Стефен Т. Кэй) [2015, триллер, драма, криминал, детектив, WEB-DLRip | Amedia]

Nickolas3435

42 | 10

1.11 ГБ

В этой теме нет новых непрочитанных сообщений. База Куантико / Quantico [01х01-03 из 19] (Марк Манден, Стефен Т. Кэй) [2015, триллер, драма, криминал, детектив, WEB-DLRip | Amedia]

Dracon

23 | 2

1.68 ГБ


Начать новую тему Ответить на тему  [ 1 сообщение ] 




Для Мосгорсуда, Роскомнадзора и рекламодателей:: mosgorsud-torrent[собачка]yandex.ru