Торрент файл
скачать торрент магнет ссылка Добавлен: 14 янв 2012, 20:24
Размер: 1.65 ГБ
Сидеров: 13
Личеров: 5
Автор

СообщениеДобавлено: 14 янв 2012, 20:24 

Не в сети
Супермодератор
Аватара пользователя
Дата регистрации:
11 апр 2010, 18:10
Спасибо: 5802 / 7
Сообщения: 56779
Не называй меня малышкой / Barb Wire


Перевод: Профессиональный (многоголосый, закадровый) [лицензия], cубтитры: отсутствуют
Формат:HDRip, AVI, XviD, AC3
Страна: США
Режиссер: Дэвид Хоган
Жанр: фантастика, боевик
Продолжительность: 01:38:20
Год выпуска: 1996
В ролях: Памела Андерсон, Темуэра Моррисон, Виктория Роуэлл, Джек Ноузуорти, Ксандер Беркли, Удо Кир, Андре Рози Браун, Клинт Ховард, Дженнифер Банко, Стив Рейлсбэк

Описание: Америка охвачена второй гражданской войной. Единственным нейтральным городом остается Стил Харбор. А самое популярное место в Стил Харборе — гриль-бар «Дубовая голова». Имя его владелицы, красавицы по кличке «колючая проволока» окружено легендами. Когда эмоции в ее баре перехлестывают через край, она лично исполняет обязанности вышибалы, а вот справиться с ней не удавалось еще никому. Единственный человек о котором она заботилась — ее слепой младший брат Чарли.

Но вот в городе появляется Аксель Худ. Он должен переправить в Канаду доктора Тайру Армстронг, чтобы предупредить Комиссию по перемирию о страшном биологическом оружии, которое может повлечь за собой глобальную катастрофу. Акселю нужна помощь, и он знает, что оказать ее может лишь «Колючая проволока»….






Видео: 704x384 (1.83:1), 23.976 fps, XviD build 63 ~1937 kbps avg, 0.30 bit/pixel
Аудио: 48 kHz, AC3 Dolby Digital, 3/2 (L,C,R,l,r) + LFE ch, ~448.00 kbps avg

Доп. информация: Рип с Blu-ray 1080p




Общее
Полное имя: G:\Ne.nazyvaj.menya.malyshkoj.1996.P.BDRip.avi
Формат: AVI
Формат/Информация: Audio Video Interleave
Размер файла: 1,65 Гбайт
Продолжительность: 1 ч. 38 м.
Общий поток: 2395 Кбит/сек
Программа кодирования: VirtualDubMod 1.5.10.2 (build 2542/release)

Видео
Идентификатор: 0
Формат: MPEG-4 Visual
Профиль формата: Advanced Simple@L5
Параметр BVOP формата: 1
Параметр QPel формата: Нет
Параметр GMC формата: Без точки перехода
Параметр матрицы формата: Выборочная
Идентификатор кодека: XVID
Идентификатор кодека/Подсказка: XviD
Продолжительность: 1 ч. 38 м.
Битрейт: 1938 Кбит/сек
Ширина: 704 пикс.
Высота: 384 пикс.
Соотношение сторон: 16:9
Частота кадров: 23,976 кадр/сек
Цветовое пространство: YUV
Подвыборка цветности: 4:2:0
Битовая глубина: 8 бит
Тип развёртки: Прогрессивная
Метод сжатия: С потерями
Бит/(Пиксели*Кадры): 0.299
Размер потока: 1,33 Гбайт (81%)
Библиотека кодирования: XviD 63

Аудио
Идентификатор: 1
Формат: AC-3
Формат/Информация: Audio Coding 3
Расширение режима: CM (complete main)
Идентификатор кодека: 2000
Продолжительность: 1 ч. 38 м.
Вид битрейта: Постоянный
Битрейт: 448 Кбит/сек
Каналы: 6 каналов
Расположение каналов: Front: L C R, Side: L R, LFE
Частота: 48,0 КГц
Битовая глубина: 16 бит
Метод сжатия: С потерями
Размер потока: 315 Мбайт (19%)
Выравнивание: Разделение по промежуткам
Продолжительность промежутка: 42мс. (1,00 видеокадр)
Время предзагрузки промежутка: 500 ms





Поделиться:




реклама партнёра


Вернуться к началу
 Профиль Отправить личное сообщение  
 
   Похожие торренты   Автор   Торрент   Размер 
В этой теме нет новых непрочитанных сообщений. Не называй меня малышкой / Barb Wire [Фантастика, боевик, 1996] BDRip-AVC, Mvo+Avo+Sub

salma3

10 | 3

2.77 ГБ

В этой теме нет новых непрочитанных сообщений. Не называй меня малышкой / Колючая проволока / Barb Wire [фантастика, боевик, 1996] BDRip 720p, Mvo+Avo+Sub

salma3

8 | 14

8.62 ГБ

В этой теме нет новых непрочитанных сообщений. Немезида 3: Провал во времени / Nemesis III: Time Lapse [фантастика, боевик, триллер, 1996] HDRip, Avo

salma3

44 | 9

1.37 ГБ

В этой теме нет новых непрочитанных сообщений. Стрела / Arrow [04х01-18 из 23] (Дэвид Баррет, Дэвид Наттер) [2015, фантастика, боевик, драма, детектив, приключения, WEB-DLRip | NewStudio]

Nickolas3435

42 | 562

12.39 ГБ

В этой теме нет новых непрочитанных сообщений. Стрела / Arrow [04х01-10 из 23] (Дэвид Баррет, Дэвид Наттер) [2015, фантастика, боевик, драма, детектив, приключения, WEB-DL 720p | BaibaKo]

Nickolas3435

0 | 0

14.17 ГБ

В этой теме нет новых непрочитанных сообщений. Стрела / Arrow [03x01-14] (Дэвид Баррет, Дэвид Наттер) [2014, фантастика, боевик, драма, детектив, приключения, HDTVRip | Kerob]

Nickolas3435

16 | 51

6.54 ГБ

В этой теме нет новых непрочитанных сообщений. Стрела / Arrow [03x01-04] (Дэвид Баррет, Дэвид Наттер) [2014, фантастика, боевик, драма, детектив, приключения, HDTVRip | Kerob]

Nickolas3435

115 | 180

1.9 ГБ


Начать новую тему Ответить на тему  [ 1 сообщение ] 




Для Мосгорсуда, Роскомнадзора и рекламодателей:: mosgorsud-torrent[собачка]yandex.ru