Торрент файл
скачать торрент магнет ссылка Добавлен: 14 янв 2012, 20:24
Размер: 697.23 МБ
Сидеров: 1
Личеров: 4
Автор

СообщениеДобавлено: 14 янв 2012, 20:24 

Не в сети
Супермодератор
Аватара пользователя
Дата регистрации:
11 апр 2010, 18:10
Спасибо: 5802 / 7
Сообщения: 56779
Скорая помощь / Ambulancen


Перевод: Любительский (одноголосый), cубтитры: отсутствуют
Формат: DVDRip, AVI, DivX, MP3
Страна: Дания
Режиссер: Лоритс Манч-Петерсен
Жанр: боевик, триллер, драма
Продолжительность: 01:15:58
Год выпуска: 2005
В ролях: Томас Бо Ларсен, Хелли да Факрайд, Ларс Бьярке, Пав Хенриксон, Торбьорн Хуммель, Энни Биргит Гарде

Описание: Два брата совершают грабеж, чтобы получить деньги для операции, которая поможет спасти их мать от смерти. Но план грабежа терпит неудачу, и полицейские блокируют автомобиль братьев — путь к бегству отрезан. Они решаются угнать санитарную машину, но в процессе погони обнаруживают к своему немалому удивлению, что в машине умирающий пациент и молодой специалист больницы…




Видео: 608x288 (2.11:1), 25 fps, XviD 1.1 beta 2 (build 39) ~1145 kbps avg, 0.26 bit/pixel
Аудио: 44.100 kHz, MPEG Layer 3, 2 ch, ~128.00 kbps avg




Полное имя : *:\********\****************)\Скорая помощь.avi
Формат : AVI
Формат/Информация : Audio Video Interleave
Размер файла : 697 Мбайт
Продолжительность : 1 ч. 15 м.
Общий поток : 1283 Кбит/сек
Программа кодирования : VirtualDubMod 1.5.10.1 (build 2366/release)
Библиотека кодирования : VirtualDubMod build 2366/release

Видео
Идентификатор : 0
Формат : MPEG-4 Visual
Профиль формата : Advanced Simple@L5
Параметр BVOP формата : 1
Параметр QPel формата : Нет
Параметр GMC формата : Без точки перехода
Параметр матрицы формата : Выборочная
Идентификатор кодека : XVID
Идентификатор кодека/Подсказка : XviD
Продолжительность : 1 ч. 15 м.
Битрейт : 1145 Кбит/сек
Ширина : 608 пикс.
Высота : 288 пикс.
Соотношение сторон : 2,2:1
Частота кадров : 25,000 кадр/сек
Цветовое пространство : YUV
Подвыборка цветности : 4:2:0
Битовая глубина : 8 бит
Тип развёртки : Прогрессивная
Метод сжатия : С потерями
Бит/(Пиксели*Кадры) : 0.262
Размер потока : 622 Мбайт (89%)
Библиотека кодирования : XviD 1.1.0 Beta2 (UTC 2005-04-04)

Аудио
Идентификатор : 1
Формат : MPEG Audio
Версия формата : Version 1
Профиль формата : Layer 3
Режим : Joint stereo
Идентификатор кодека : 55
Идентификатор кодека/Подсказка : MP3
Продолжительность : 1 ч. 15 м.
Вид битрейта : Постоянный
Битрейт : 128 Кбит/сек
Каналы : 2 канала
Частота : 44,1 КГц
Метод сжатия : С потерями
Размер потока : 69,5 Мбайт (10%)
Выравнивание : Разделение по промежуткам
Продолжительность промежутка : 40 мс. (1,00 видеокадр)
Время предзагрузки промежутка : 500 ms





Поделиться:




реклама партнёра


Вернуться к началу
 Профиль Отправить личное сообщение  
 
   Похожие торренты   Автор   Торрент   Размер 
В этой теме нет новых непрочитанных сообщений. Скорая помощь / The Ambulance [боевик, триллер, мелодрама, 1990] DVDRip, Avo [Володарский]

salma3

13 | 5

1.31 ГБ

В этой теме нет новых непрочитанных сообщений. Скорая помощь / The Ambulance [боевик, триллер, мелодрама, 1990] DVDRip, Avo [Гаврилов]

salma3

10 | 3

1.31 ГБ

В этой теме нет новых непрочитанных сообщений. Скорая помощь [01-16 из 16] [Драма, 2013] SATRip

Dracon

59 | 22

8.6 ГБ

В этой теме нет новых непрочитанных сообщений. Скорая помощь / Ambulance Girl (Кэти Бэйтс / Kathy Bates) [2005г., комедия, драма, HDTVRip] MVO

Alfredovich

3 | 2

1.37 ГБ

В этой теме нет новых непрочитанных сообщений. Быстрое реагирование / Первая помощь / First Response [Боевик, триллер, драма, 2015] HDTVRip, Dvo

salma3

173 | 47

1.46 ГБ

В этой теме нет новых непрочитанных сообщений. Недооформлен Самолет президента / Air Force One (Вольфганг Петерсен) [1997, боевик, триллер, драма, приключения, HDRip-AVC] DUB+MVO+AVO / Фильмы HDRip Данный торрент является блокированным, причина: недооформленный торрент

Kochesov

11 | 1

3.57 ГБ

В этой теме нет новых непрочитанных сообщений. Тени прошлого / The Cutter [боевик, триллер, драма, 2005] DVDRip-AVC, Mvo

salma3

19 | 4

1.46 ГБ


Начать новую тему Ответить на тему  [ 1 сообщение ] 




Для Мосгорсуда, Роскомнадзора и рекламодателей:: mosgorsud-torrent[собачка]yandex.ru