Торрент файл
скачать торрент магнет ссылка Добавлен: 14 янв 2012, 20:21
Размер: 1.45 ГБ
Сидеров: 13
Личеров: 7
Автор

СообщениеДобавлено: 14 янв 2012, 20:21 

Не в сети
Супермодератор
Аватара пользователя
Дата регистрации:
11 апр 2010, 18:10
Спасибо: 5802 / 7
Сообщения: 56779
[b]Турист / The Tourist[/b]


Перевод: Профессиональный (полное дублирование)
Субтитры: русские (форсированные)
Формат: HDRip-AVC, MKV, H.264, AC3

Страна:США, Франция

Режиссер: Флориан Хенкель фон Доннерсмарк
Жанр: боевик, триллер, драма, мелодрама
Продолжительность: 01:43:28
Год выпуска: 2010

В ролях: Джонни Депп, Анджелина Джоли, Пол Беттани, Стивен Беркофф, Тимоти Далтон, Руфус Сьюэлл,, Игорь Жижикин, Кристиан Де Сика, Алессио Бони, Даниэле Печчи.

Описание: Американский турист Фрэнк приезжает в Италию, чтобы залечить душевную рану. В Венеции он знакомится с необычной женщиной по имени Элиза. Израненное сердце, похоже, готово сдаться новой возлюбленной. Однако планы Фрэнка и Элизы грубейшим образом нарушает водоворот интриг и опасностей.



Видео: 1024x432 (2.35:1), 23.976 fps, AVC MPEG-4 High@L4.1 ~1564 kbps avg, 0.147 bit/pixel
Аудио: 48 kHz, AC3 Dolby Digital, 3/2 (L,C,R,l,r) + LFE ch, ~448 kbps avg




General
UniqueID : 246371711085125139858609600970363400387 (0xB9597730707B5F2F9DF2A01F984670C3)
Complete name : D:\Tоurist.2010.D.HDRip.mkv
Format : Matroska
File size : 1.45 GiB
Duration : 1h 43mn
Overall bit rate : 2 007 Kbps
Encoded date : UTC 2011-02-23 09:27:39
Writing application : mkvmerge v4.4.0 ('Die Wiederkehr') сборка от Nov 7 2010 22:17:07
Writing library : libebml v1.0.0 + libmatroska v1.0.0

Video
ID : 1
Format : AVC
Format/Info : Advanced Video Codec
Format profile : High@L4.1
Format settings, CABAC : Yes
Format settings, ReFrames : 10 frames
Codec ID : V_MPEG4/ISO/AVC
Duration : 1h 43mn
Bit rate : 1 564 Kbps
Width : 1 024 pixels
Height : 432 pixels
Display aspect ratio : 2.35:1
Frame rate : 23.976 fps
Color space : YUV
Chroma subsampling : 4:2:0
Bit depth : 8 bits
Scan type : Progressive
Bits/(Pixel*Frame) : 0.147
Stream size : 1.10 GiB (76%)
Title : Tоurist.chopper887
Writing library : x264 core 112 r1867 22bfd31
Encoding settings : cabac=1 / ref=10 / deblock=1:-2:-1 / analyse=0x3:0x133 / me=umh / subme=9 / psy=1 / psy_rd=1.00:0.15 / mixed_ref=1 / me_range=32 / chroma_me=0 / trellis=2 / 8x8dct=1 / cqm=0 / deadzone=21,11 / fast_pskip=0 / chroma_qp_offset=-3 / threads=3 / sliced_threads=0 / nr=0 / decimate=1 / interlaced=0 / constrained_intra=0 / bframes=8 / b_pyramid=2 / b_adapt=2 / b_bias=0 / direct=3 / weightb=1 / open_gop=0 / weightp=2 / keyint=250 / keyint_min=23 / scenecut=40 / intra_refresh=0 / rc_lookahead=60 / rc=2pass / mbtree=1 / bitrate=1564 / ratetol=1.0 / qcomp=0.70 / qpmin=10 / qpmax=51 / qpstep=4 / cplxblur=20.0 / qblur=0.5 / ip_ratio=1.40 / aq=1:1.00
Language : English

Audio
ID : 2
Format : AC-3
Format/Info : Audio Coding 3
Mode extension : CM (complete main)
Codec ID : A_AC3
Duration : 1h 43mn
Bit rate mode : Constant
Bit rate : 448 Kbps
Channel(s) : 6 channels
Channel positions : Front: L C R, Side: L R, LFE
Sampling rate : 48.0 KHz
Bit depth : 16 bits
Compression mode : Lossy
Stream size : 332 MiB (22%)
Title : Дубляж

Text
ID : 3
Format : UTF-8
Codec ID : S_TEXT/UTF8
Codec ID/Info : UTF-8 Plain Text
Title : Русские (форсированные)








Поделиться:




реклама партнёра


Вернуться к началу
 Профиль Отправить личное сообщение  
 
   Похожие торренты   Автор   Торрент   Размер 
В этой теме нет новых непрочитанных сообщений. Чёртов Берлин / Fucking Berlin (Флориан Готтшик / Florian Gottschick) [2016г., Германия., драма, мелодрама, WEB-DLRip] Sub

Alfredovich

66 | 22

1.46 ГБ

В этой теме нет новых непрочитанных сообщений. Жертва / Kurbaan [боевик, триллер, драма, мелодрама, 2009] HDRip, Mvo [Zee TV]

salma3

15 | 4

1.46 ГБ

В этой теме нет новых непрочитанных сообщений. Политики / Raajneeti [боевик, триллер, драма, криминал, 2010] HDRip, Mvo+Sub

salma3

5 | 4

2.92 ГБ

В этой теме нет новых непрочитанных сообщений. Великолепный / Столкновение / Adhurs [Боевик, триллер, драма, 2010] HDRip, Mvo

salma3

3 | 3

1.46 ГБ

В этой теме нет новых непрочитанных сообщений. Политики / Raajneeti [боевик, триллер, драма, криминал, 2010] HDRip, Mvo [КПК]

salma3

3 | 2

511.74 МБ

В этой теме нет новых непрочитанных сообщений. Быстрее пули / Faster [боевик, триллер, драма, криминал, 2010 ] HDRip, Avo [Гаврилов]

salma3

2 | 3

1.45 ГБ

В этой теме нет новых непрочитанных сообщений. Солдат / Holiday [Боевик, триллер, мелодрама, 2014] HDRip, Mvo

salma3

2 | 3

1.96 ГБ


Начать новую тему Ответить на тему  [ 1 сообщение ] 




Для Мосгорсуда, Роскомнадзора и рекламодателей:: mosgorsud-torrent[собачка]yandex.ru