Торрент файл
скачать торрент магнет ссылка Добавлен: 14 янв 2012, 20:19
Размер: 1.37 ГБ
Сидеров: 11
Личеров: 4
Автор

СообщениеДобавлено: 14 янв 2012, 20:19 

Не в сети
Супермодератор
Аватара пользователя
Дата регистрации:
11 апр 2010, 18:10
Спасибо: 5963 / 7
Сообщения: 56762
Жаркий день / Scorcher


Перевод: Профессиональный (многоголосый, закадровый), cубтитры: отсутствуют
Формат: DVDRip, AVI, XviD, AC3
Страна: США
Режиссер: Джеймс Сил
Жанр: боевик, триллер, драма, приключения
Продолжительность: 01:24:09
Год выпуска: 2002
В ролях: Марк Дакаскос, Джон Рис-Дэвис, Тамара Дейвис, Марк Ролстон, Рутгер Хауэр, Рэйн Маркус, Дж. У. Бейли, Томас Ф. Даффи, Сэм Ллойд, Майкл Джейс

Описание: Американская нация снова спасает мир. В результате наплевательского отношения к матери-Земле человечество рискует сгореть заживо, в прямом смысле этого слова. Американскими учеными-сейсмологами во время очередной экспедиции выявлена сильно повышенная сейсмическая и вулканическая активность. В общем горят даже шельфовые ледники. А причиной этому явилось, пришедшее в движение Тихоокеанское плато, которое нужно остановить, и времени на это очень мало.

По приказу президента США группа в составе: лучшего сейсмолога в мире Джулии Макграф, полковника Беккета, ну и само собой группы поддержки, должны осуществить сей дерзкий план… А каким способом-надо смотреть…




Видео: 720x400 (1.80:1), 25 fps, XviD build 47 ~1870 kbps avg, 0.26 bit/pixel
Аудио: 48 kHz, AC3 Dolby Digital, 3/2 (L,C,R,l,r) + LFE ch, ~448.00 kbps avg




Общее
Полное имя: E:\Scorcher (2002).avi
Формат: AVI
Формат/Информация: Audio Video Interleave
Размер файла: 1,37 Гбайт
Продолжительность: 1 ч. 24 м.
Общий поток: 2325 Кбит/сек
Программа кодирования: VirtualDubMod 1.5.4.1 (build 2178/release)
Библиотека кодирования: VirtualDubMod build 2178/release

Видео
Идентификатор: 0
Формат: MPEG-4 Visual
Профиль формата: Advanced Simple@L5
Параметр BVOP формата: Нет
Параметр QPel формата: Нет
Параметр GMC формата: Без точки перехода
Параметр матрицы формата: Выборочная
Идентификатор кодека: XVID
Идентификатор кодека/Подсказка: XviD
Продолжительность: 1 ч. 24 м.
Битрейт: 1870 Кбит/сек
Ширина: 720 пикс.
Высота: 400 пикс.
Соотношение сторон: 16:9
Частота кадров: 25,000 кадр/сек
Цветовое пространство: YUV
Подвыборка цветности: 4:2:0
Битовая глубина: 8 бит
Тип развёртки: Прогрессивная
Метод сжатия: С потерями
Бит/(Пиксели*Кадры): 0.260
Размер потока: 1,10 Гбайт (80%)
Библиотека кодирования: XviD 1.2.0.dev47 (UTC 2006-11-01)

Аудио
Идентификатор: 1
Формат: AC-3
Формат/Информация: Audio Coding 3
Расширение режима: CM (complete main)
Идентификатор кодека: 2000
Продолжительность: 1 ч. 24 м.
Вид битрейта: Постоянный
Битрейт: 448 Кбит/сек
Канал(ы): 6 канала(ов)
Расположение каналов: Front: L C R, Side: L R, LFE
Частота: 48,0 КГц
Битовая глубина: 16 бит
Метод сжатия: С потерями
Задержка видео: 24 мс.
Размер потока: 270 Мбайт (19%)
Выравнивание: Разделение по промежуткам
Продолжительность промежутка: 96мс. (2,40 видеокадров)
Время предзагрузки промежутка: 96 ms





Поделиться:




реклама партнёра


Вернуться к началу
 Профиль Отправить личное сообщение  
 
   Похожие торренты   Автор   Торрент   Размер 
В этой теме нет новых непрочитанных сообщений. Непостижимый ужас / The Untold [ужасы, боевик, триллер, приключения, 2002] DVDRip, Mvo

salma3

21 | 4

1.46 ГБ

В этой теме нет новых непрочитанных сообщений. Ячейка 507 / La Caja 507 [боевик, триллер, драма, 2002] DVDRip-AVC, Mvo

salma3

127 | 5

2.21 ГБ

В этой теме нет новых непрочитанных сообщений. С меня хватит / Enough [Триллер, Боевик, Драма, 2002] DVDRip-AVC, Dub

salma3

18 | 18

2.88 ГБ

В этой теме нет новых непрочитанных сообщений. Джеймс Бонд 007: Лицензия на убийство / James Bond 007: Licence to Kill [Боевик, триллер, приключения, 1989] BDRip 720p, Dub

salma3

0 | 0

9.07 ГБ

В этой теме нет новых непрочитанных сообщений. Слово вора / The Hard Word [Боевик, триллер, драма, 2002] DVDRip, Mvo

salma3

205 | 55

744.73 МБ

В этой теме нет новых непрочитанных сообщений. Федеральная защита / Federal Protection [Боевик, триллер, драма, 2002] DVDRip-AVC, Avo

salma3

149 | 41

1.46 ГБ

В этой теме нет новых непрочитанных сообщений. Виртуоз / The Piano Player [боевик, триллер, драма, криминал, 2002] DVDRip, Mvo

salma3

134 | 3

1.36 ГБ


Начать новую тему Ответить на тему  [ 1 сообщение ] 




Для Мосгорсуда, Роскомнадзора и рекламодателей:: mosgorsud-torrent[собачка]yandex.ru