Торрент файл
скачать торрент магнет ссылка Добавлен: 14 янв 2012, 20:19
Размер: 1.45 ГБ
Сидеров: 40
Личеров: 8
Автор

СообщениеДобавлено: 14 янв 2012, 20:19 

Не в сети
Супермодератор
Аватара пользователя
Дата регистрации:
11 апр 2010, 18:10
Спасибо: 5962 / 7
Сообщения: 56762
Не отступать и не сдаваться / No Retreat, No Surrender


Перевод: Профессиональный (одноголосый), cубтитры: отсутствуют
Формат: DVDRip, AVI, XviD, AC3
Страна: США, Гонконг
Режиссер: Кори Юэнь
Жанр: боевик, драма
Продолжительность: 01:34:30
Год выпуска: 1986
В ролях: Тимоти Д. Бейкер, Дэйл Джейкоби, Курт МакКинни, Дж.В. У., Кэти Сайлено, Таи Чунг Ким, Кент Липэм, Рон Понел, Питер Каннингэм, Жан-Клод Ван Дамм

Описание: Парнишка, изучающий восточные единоборства и мечтающий стать чемпионом, бесстрашно вступает в борьбу с уголовниками и шпаной и зарабатывает сперва лишь синяки и насмешки окружающих.

Но в награду за проявленную силу духа, настойчивость и упорную работу на тренировках до седьмого пота, ему начинает покровительствовать и обучать его всем секретам мастерства дух самого Брюса Ли. И, сразившись в большом турнире с грозным русским противником, молодой американский кикбоксер сенсационно, вопреки ожиданиям зрителей и прогнозам специалистов, побеждает.




Видео:720x544 (1.32:1), 25 fps, XviD build 47 ~1733 kbps avg, 0.18 bit/pixel
Аудио#1: Русский 48 kHz, AC3 Dolby Digital, 2/0 (L,R) ch, ~224.00 kbps avg[Профессиональный (одноголосый)]
Аудио#2: Корейский 48 kHz, AC3 Dolby Digital, 2/0 (L,R) ch, ~224.00 kbps avg[Оригинал]




Общее
Полное имя: E:\Не отступать и не сдаваться.avi
Формат: AVI
Формат/Информация: Audio Video Interleave
Размер файла: 1,45 Гбайт
Продолжительность: 1 ч. 34 м.
Общий поток: 2197 Кбит/сек
Программа кодирования: VirtualDubModRus 1.5.10.2 (build 2542/release)
Библиотека кодирования: VirtualDubMod build 2542/release

Видео
Идентификатор: 0
Формат: MPEG-4 Visual
Профиль формата: Advanced Simple@L5
Параметр BVOP формата: 1
Параметр QPel формата: Нет
Параметр GMC формата: Без точки перехода
Параметр матрицы формата: Default (H.263)
Идентификатор кодека: XVID
Идентификатор кодека/Подсказка: XviD
Продолжительность: 1 ч. 34 м.
Битрейт: 1735 Кбит/сек
Ширина: 720 пикс.
Высота: 544 пикс.
Соотношение сторон: 4:3
Частота кадров: 25,000 кадр/сек
Цветовое пространство: YUV
Подвыборка цветности: 4:2:0
Битовая глубина: 8 бит
Тип развёртки: Прогрессивная
Метод сжатия: С потерями
Бит/(Пиксели*Кадры): 0.177
Размер потока: 1,15 Гбайт (79%)
Библиотека кодирования: XviD 1.2.0.dev47 (UTC 2006-11-01)

Аудио #1
Идентификатор: 1
Формат: AC-3
Формат/Информация: Audio Coding 3
Расширение режима: CM (complete main)
Идентификатор кодека: 2000
Продолжительность: 1 ч. 34 м.
Вид битрейта: Постоянный
Битрейт: 224 Кбит/сек
Канал(ы): 2 канала(ов)
Расположение каналов: Front: L R
Частота: 48,0 КГц
Битовая глубина: 16 бит
Метод сжатия: С потерями
Размер потока: 151 Мбайт (10%)
Выравнивание: Разделение по промежуткам
Продолжительность промежутка: 40мс. (1,00 видеокадр)
Время предзагрузки промежутка: 500 ms

Аудио #2
Идентификатор: 2
Формат: AC-3
Формат/Информация: Audio Coding 3
Расширение режима: CM (complete main)
Идентификатор кодека: 2000
Продолжительность: 1 ч. 34 м.
Вид битрейта: Постоянный
Битрейт: 224 Кбит/сек
Канал(ы): 2 канала(ов)
Расположение каналов: Front: L R
Частота: 48,0 КГц
Битовая глубина: 16 бит
Метод сжатия: С потерями
Размер потока: 151 Мбайт (10%)
Выравнивание: Разделение по промежуткам
Продолжительность промежутка: 40мс. (1,00 видеокадр)
Время предзагрузки промежутка: 500 ms





Поделиться:




реклама партнёра


Вернуться к началу
 Профиль Отправить личное сообщение  
 
   Похожие торренты   Автор   Торрент   Размер 
В этой теме нет новых непрочитанных сообщений. Не отступать и не сдаваться / No Retreat, No Surrender [боевик, драма, криминал, 1986] BDRemux 1080р, Dvo

salma3

13 | 4

20.04 ГБ

В этой теме нет новых непрочитанных сообщений. Никогда не сдавайся 3 / Never Back Down: No Surrender [боевик, 2016] DVDRip, Dvo

salma3

1351 | 39

1.37 ГБ

В этой теме нет новых непрочитанных сообщений. Легко не сдаваться / Not Easily Broken [Мелодрама, драма, 2009] BDRip 1080p, Mvo

salma3

56 | 16

8.21 ГБ

В этой теме нет новых непрочитанных сообщений. Никогда не сдавайся 3 / Never Back Down: No Surrender [боевик, 2016] WEB-DL 720p, Mvo [iTunes]

salma3

1170 | 120

3.14 ГБ

В этой теме нет новых непрочитанных сообщений. Никогда не сдавайся 3 / Never Back Down: No Surrender [боевик, 2016] WEB-DLRip-AVC, Mvo [iTunes]

salma3

502 | 92

1.46 ГБ

В этой теме нет новых непрочитанных сообщений. Никогда не сдавайся 3 / Never Back Down: No Surrender [боевик, 2016] WEB-DL 1080p, Mvo [iTunes]

salma3

870 | 103

4.1 ГБ

В этой теме нет новых непрочитанных сообщений. Подонки / Bullies [боевик, триллер, драма, 1986] DVDRip, Avo

salma3

7 | 3

1.4 ГБ


Начать новую тему Ответить на тему  [ 1 сообщение ] 




Для Мосгорсуда, Роскомнадзора и рекламодателей:: mosgorsud-torrent[собачка]yandex.ru