Торрент файл
скачать торрент магнет ссылка Добавлен: 14 янв 2012, 20:18
Размер: 1.48 ГБ
Сидеров: 157
Личеров: 24
Автор

СообщениеДобавлено: 14 янв 2012, 20:18 

Не в сети
Супермодератор
Аватара пользователя
Дата регистрации:
11 апр 2010, 18:10
Спасибо: 5798 / 7
Сообщения: 56779
Колония / Double team


Перевод: Профессиональный (полное дублирование), cубтитры: отсутствуют
Формат:DVDRip-AVC, MKV, H.264, AC3
Страна: США
Режиссер: Цуй Харк
Жанр: боевик, триллер
Продолжительность: 01:29:13
Год выпуска: 1997
В ролях: Микки Рурк, Пол Фримен, Марио Опинато, Жан-Клод Ван Дамм, Валерия Кавалли, Дэннис Родман, Наташа Линдинжер, Джоэлль Дэво-Вуллион, Бруно Билотта, Джей Бенедикт

Описание: Жан-Клод в роли секретного суперагента Джека Куинна. Ему поручают убрать опасного международного террориста Ставроса, но в самый ответственный момент, когда нужно было нажимать на спусковой курок, Ставрос обнимал жену и ребенка. Рука Джека дрогнула, и он упустил врага, хотя жена и сын его погибли.

Теперь у Ставроса были и веские личные счеты с теми, кто заказал его убийство. Итак, Джек совершил ошибку, а такое не прощается, и он был помещен в Колонию, став «мертвецом» для всего остального мира, включая собственную семью. Здесь обитали «мертвые» лучшие шпионы и агенты со всей планеты.

Они были слишком опасны, чтобы жить, и слишком дорого стоили, чтобы быть убитыми. Их использовали для анализа и отработки экстремальных ситуаций. Однако Куинн не смирился и совершил невероятный побег, чтобы довести задание до конца. Он находит себе партнера, эксцентричного торговца оружием, чернокожего лихого парня с единственной страстью — разрушать. У них разный стиль, но одна задача…




Видео: 720х304 25,000 fps,MPEG4 AVC (x264), High@L3.1 , ~ 1986kbps,0.363 bit/pixel
Аудио: 48.0 kHz, AC3, (Front: L C R, Side: L R, LFE) 6 ch, ~384 kbps avg


Общее
Уникальный идентификатор: 223731602172556758954169998880553475936 (0xA85123A37655CC16B01E90D1CC029F60)
Полное имя: E:\Double.Team.mkv
Формат: Matroska
Размер файла: 1,48 Гбайт
Продолжительность: 1 ч. 29 м.
Общий поток: 2372 Кбит/сек
Название фильма: http://reliztv.com/
Дата кодирования: UTC 2010-12-24 23:05:49
Программа кодирования: mkvmerge v4.0.0 ('The Stars were mine') сборка от Jun6 2010 16:18:42
Библиотека кодирования: libebml v1.0.0 + libmatroska v1.0.0

Видео
Идентификатор: 1
Формат: AVC
Формат/Информация: Advanced Video Codec
Профиль формата: High@L3.1
Параметр CABAC формата: Да
Параметр ReFrames формата: 2 кадры
Идентификатор кодека: V_MPEG4/ISO/AVC
Продолжительность: 1 ч. 29 м.
Битрейт: 1986 Кбит/сек
Ширина: 720 пикс.
Высота: 304 пикс.
Соотношение сторон: 2,40:1
Соотношение сторон в оригинале: 2,35:1
Частота кадров: 25,000 кадр/сек
Цветовое пространство: YUV
Подвыборка цветности: 4:2:0
Битовая глубина: 8 бит
Тип развёртки: Прогрессивная
Бит/(Пиксели*Кадры): 0.363
Размер потока: 1,21 Гбайт (82%)
Библиотека кодирования: x264 core 1679598476May4 2010
Настройки программы: cabac=1 / ref=1 / deblock=0:0:0 / analyse=0x3:0x113 / me=hex / subme=5 / psy=1 / psy_rd=0.0:0.0 / mixed_ref=0 / me_range=16 / chroma_me=1 / trellis=0 / 8x8dct=1 / cqm=0 / deadzone=21,11 / chroma_qp_offset=0 / threads=1 / nr=0 / decimate=1 / mbaff=0 / bframes=3 / b_pyramid=0 / b_adapt=1 / b_bias=0 / direct=1 / wpredb=1 / keyint=250 / keyint_min=1 / scenecut=40 / rc_lookahead=40 / rc=abr / mbtree=1 / bitrate=1986 / ratetol=1.0 / qcomp=0.50 / qpmin=2 / qpmax=31 / qpstep=4 / ip_ratio=1.40 / aq=1:0.30
Язык: English

Аудио
Идентификатор: 2
Формат: AC-3
Формат/Информация: Audio Coding 3
Расширение режима: CM (complete main)
Идентификатор кодека: A_AC3
Продолжительность: 1 ч. 29 м.
Вид битрейта: Постоянный
Битрейт: 384 Кбит/сек
Канал(ы): 6 канала(ов)
Расположение каналов: Front: L C R, Side: L R, LFE
Частота: 48,0 КГц
Битовая глубина: 16 бит
Метод сжатия: С потерями
Размер потока: 245 Мбайт (16%)
Язык: Russian





Поделиться:




реклама партнёра


Вернуться к началу
 Профиль Отправить личное сообщение  
 
   Похожие торренты   Автор   Торрент   Размер 
В этой теме нет новых непрочитанных сообщений. Колония / Double Team [боевик, триллер, комедия, 1997] HDTVRip, Dub+Mvo+Sub

salma3

15 | 3

1.46 ГБ

В этой теме нет новых непрочитанных сообщений. Колония / Double Team [Фантастика, боевик, триллер, комедия, 1997] Blu-Ray Remux 1080p, Dub+Mvo+Sub

salma3

39 | 6

15.37 ГБ

В этой теме нет новых непрочитанных сообщений. Колония / The Colony [Фантастика, боевик, триллер, 2013] HDRip, Dub [Лицензия]

Dracon

514 | 24

1.46 ГБ

В этой теме нет новых непрочитанных сообщений. Колония / The Colony [Фантастика, боевик, триллер, 2013] BDRip 720p, Dub+Sub [Лицензия]

Dracon

90 | 14

5 ГБ

В этой теме нет новых непрочитанных сообщений. Колония / The Colony [Фантастика, боевик, триллер, 2013] HDRip-AVC, Dub [Чистый звук]

Dracon

7 | 2

1.39 ГБ

В этой теме нет новых непрочитанных сообщений. Колония / The Colony [Фантастика, боевик, триллер, 2013] BDRip 1080p, Dub+Sub [Лицензия]

Dracon

186 | 19

7.15 ГБ

В этой теме нет новых непрочитанных сообщений. Колония / The Colony [Фантастика, боевик, триллер, 2013] BDRip 720p, Dub [Чистый звук]

Dracon

28 | 2

4.54 ГБ


Начать новую тему Ответить на тему  [ 1 сообщение ] 




Для Мосгорсуда, Роскомнадзора и рекламодателей:: mosgorsud-torrent[собачка]yandex.ru