Торрент файл
скачать торрент магнет ссылка Добавлен: 14 янв 2012, 15:27
Размер: 733.82 МБ
Сидеров: 33
Личеров: 10
Автор

СообщениеДобавлено: 14 янв 2012, 15:27 

Не в сети
Супермодератор
Аватара пользователя
Дата регистрации:
11 апр 2010, 18:10
Спасибо: 5801 / 7
Сообщения: 56779
Зеленый шершень / The Green Hornet

«Героям закон не писан!»

Перевод: Профессиональный (полное дублирование)
Субтитры:отсутствуют
Формат: LowHDRip, MKV, H.264, AC3

Страна: США
Режиссер: Мишель Гондри
Жанр: боевик, комедия, криминал

Продолжительность: 01:58:53
Год выпуска: 2011

В ролях: Сет Роген, Джей Чоу, Кристоф Вальц, Кэмерон Диаз, Том Уилкинсон, Дэвид Харбор, Эдвард Джеймс Олмос, Джэми Харрис, Чад Коулмэн, Эдвард Ферлонг

Описание: Сын медиа-магната «прожигает» свою жизнь в вечных пьянках и бесчисленных случайных связях. Но после неожиданной смерти отца он наконец осознает бесцельность своего существования и решает все изменить. Вместе с другом они становятся супергероями, которые борются с преступностью ее же методами, совершенно не считаясь с законом…



Видео: 688x288 (2.39:1), 24 fps, MPEG-4 AVC (x264) High@L4.1, ~734 kbps avg, 0.154 bit/pixel
Аудио: 48 kHz, AC3, 2 ch, ~128.00 kbps avg

Рип от: TswetkOFF

Релиз-Группа:



General
Unique ID: 281242232886445599725298989674267443048 (0xD39548A6BD2755F7ED488E7511CC7F6
Complete name: D:\Films\the_green_hornet_[tfile.ru].mkv
Format: Matroska
File size: 734 MiB
Duration: 1h 58mn
Overall bit rate: 863 Kbps
Writing application: Lavf52.103.0
Writing library: Lavf52.103.0

Video
ID: 1
Format: AVC
Format/Info: Advanced Video Codec
Format profile: High@L4.1
Format settings, CABAC: Yes
Format settings, ReFrames: 3 frames
Codec ID: V_MPEG4/ISO/AVC
Duration: 1h 58mn
Bit rate: 734 Kbps
Width: 688 pixels
Height: 288 pixels
Display aspect ratio: 2.35:1
Original display aspect ratio: 2.40:1
Frame rate mode: Variable
Frame rate: 24.000 fps
Color space: YUV
Chroma subsampling: 4:2:0
Bit depth: 8 bits
Scan type: Progressive
Bits/(Pixel*Frame): 0.154
Stream size: 610 MiB (83%)
Title: 2011.BDRip.1080p
Writing library: x264 core 114 r1924M 08d04a4
Encoding settings: cabac=1 / ref=3 / deblock=1:0:0 / analyse=0x3:0x133 / me=hex / subme=7 / psy=1 / psy_rd=1.00:0.20 / mixed_ref=1 / me_range=16 / chroma_me=1 / trellis=1 / 8x8dct=1 / cqm=0 / deadzone=21,11 / fast_pskip=1 / chroma_qp_offset=-3 / threads=2 / sliced_threads=0 / nr=0 / decimate=1 / interlaced=0 / constrained_intra=0 / bframes=3 / b_pyramid=1 / b_adapt=2 / b_bias=0 / direct=3 / weightb=1 / open_gop=0 / weightp=2 / keyint=240 / keyint_min=24 / scenecut=40 / intra_refresh=0 / rc_lookahead=40 / rc=abr / mbtree=1 / bitrate=734 / ratetol=1.0 / qcomp=0.60 / qpmin=10 / qpmax=51 / qpstep=4 / ip_ratio=1.40 / aq=1:1.00
Language: English / English

Audio
ID: 2
Format: AC-3
Format/Info: Audio Coding 3
Mode extension: CM (complete main)
Codec ID: A_AC3
Duration: 1h 58mn
Bit rate mode: Constant
Bit rate: 128 Kbps
Channel(s): 2 channels
Channel positions: Front: L R
Sampling rate: 48.0 KHz
Bit depth: 16 bits
Compression mode: Lossy
Stream size: 109 MiB (15%)
Title: DUB (R5)
Language: English / Russian










Поделиться:




реклама партнёра


Вернуться к началу
 Профиль Отправить личное сообщение  
 
   Похожие торренты   Автор   Торрент   Размер 
В этой теме нет новых непрочитанных сообщений. Зеленый ад / The Green Inferno (Элай Рот) [Ужасы, приключения, 2013] WEB-DLRip, avo

Dracon

4549 | 160

1.37 ГБ

В этой теме нет новых непрочитанных сообщений. Зеленый ад / The Green Inferno (Элай Рот) [Ужасы, приключения, 2013] WEB-DLRip, dvo

Dracon

433 | 28

1.37 ГБ

В этой теме нет новых непрочитанных сообщений. Зеленый ад / The Green Inferno (Элай Рот) [Ужасы, приключения, 2013] WEB-DL 720p, avo

Dracon

937 | 79

3.05 ГБ

В этой теме нет новых непрочитанных сообщений. Драконы Нью-Йорка / Revenge of the Green Dragons (Вэй Кеунг Лау, Эндрю Лу) [Боевик, драма, криминал, 2014] НDRip, Dvo

Dracon

414 | 13

1.37 ГБ

В этой теме нет новых непрочитанных сообщений. Драконы Нью-Йорка / Revenge of the Green Dragons (Вэй Кеунг Лау, Эндрю Лу) [Боевик, драма, криминал, 2014] НDRip, dub [Чистый звук]

Dracon

5534 | 265

1.37 ГБ

В этой теме нет новых непрочитанных сообщений. Драконы Нью-Йорка / Revenge of the Green Dragons (Вэй Кеунг Лау, Эндрю Лу) [Боевик, драма, криминал, 2014] BDRip 720p, dub [Чистый звук]

Dracon

88 | 63

4.81 ГБ

В этой теме нет новых непрочитанных сообщений. Драконы Нью-Йорка / Revenge of the Green Dragons (Вэй Кеунг Лау, Эндрю Лу) [Боевик, драма, криминал, 2014] BDRip 1080p, dub [Чистый звук]

Dracon

73 | 67

9.97 ГБ


Начать новую тему Ответить на тему  [ 1 сообщение ] 




Для Мосгорсуда, Роскомнадзора и рекламодателей:: mosgorsud-torrent[собачка]yandex.ru