Торрент файл
скачать торрент магнет ссылка Добавлен: 14 янв 2012, 15:27
Размер: 2.19 ГБ
Сидеров: 194
Личеров: 17
Автор

СообщениеДобавлено: 14 янв 2012, 15:27 

Не в сети
Супермодератор
Аватара пользователя
Дата регистрации:
11 апр 2010, 18:10
Спасибо: 5802 / 7
Сообщения: 56779
Механик / The Mechanic

Перевод: Профессиональный (полное дублирование), cубтитры: русские, английские
Формат: HDRip-AVC, MKV, H.264, AC3
Страна: США
Режиссер: Саймон Уэст
Жанр: боевик, триллер, драма
Продолжительность: 01:32:44
Год выпуска: 2011

В ролях: Джейсон Стэтхэм, Бен Фостер, Тони Голдуин, Дональд Сазерленд, Джефф Чейз, Мини Анден, Джеймс Логан, Эдди Дж. Фернандез, Джошуа Бриджуотер, Джон МакКоннелл

Описание: Артур Бишоп — «Механик», высокопрофессиональный безукоризненный киллер, который всегда работает по правилам — «чисто» и без следов. Такая работа требует полного самообладания и беспристрастности, и в своём деле ему нет равных. Бишоп всегда работал один, но ему пришлось стать наставником молодого и отчаянного Стива. Методичный профессионал и импульсивный ученик теперь на пару «устраняют проблемы», но рано или поздно они сойдутся в смертельной схватке…



Видео: 1024 x 428 (2.393), 23.976 fps, V_MPEG4/ISO/AVC, High@L3.2, ~ 2 927 Kbps Kbps, 0.279 bit/pixel
Аудио: 48 kHz, AC3 Dolby Digital, 3/2 (L,C,R,l,r) + LFE ch, ~384 kbps

General
Unique ID: 187349068804889327632077522051752227686 (0x8CF21E4027E3AEBA835151318B337366)
Complete name: E:\РЕЛИЗЫ\Все релизы 14\the_mechanic_[tfile.ru].mkv
Format: Matroska
File size: 2.19 GiB
Duration: 1h 32mn
Overall bit rate: 3 378 Kbps
Movie name: HDRip-AVC by MaxVeLL [DHT-Movies]
Encoded date: UTC 2011-04-20 11:19:51
Writing application: mkvmerge v4.6.0 ('Still Crazy After All These Years') сборка от Mar 10 2011 02:50:32
Writing library: libebml v1.2.0 + libmatroska v1.1.0

Video
ID: 1
Format: AVC
Format/Info: Advanced Video Codec
Format profile: High@L3.2
Format settings, CABAC: Yes
Format settings, ReFrames: 7 frames
Codec ID: V_MPEG4/ISO/AVC
Duration: 1h 32mn
Bit rate: 2 927 Kbps
Width: 1 024 pixels
Height: 428 pixels
Display aspect ratio: 2.35:1
Frame rate: 23.976 fps
Standard: NTSC
Color space: YUV
Chroma subsampling: 4:2:0
Bit depth: 8 bits
Scan type: Progressive
Bits/(Pixel*Frame): 0.279
Stream size: 1.90 GiB (87%)
Color primaries: BT.709-5, BT.1361, IEC 61966-2-4, SMPTE RP177
Transfer characteristics: BT.709-5, BT.1361
Matrix coefficients: BT.709-5, BT.1361, IEC 61966-2-4 709, SMPTE RP177

Audio
ID: 2
Format: AC-3
Format/Info: Audio Coding 3
Mode extension: CM (complete main)
Codec ID: A_AC3
Duration: 1h 32mn
Bit rate mode: Constant
Bit rate: 384 Kbps
Channel(s): 6 channels
Channel positions: Front: L C R, Side: L R, LFE
Sampling rate: 48.0 KHz
Bit depth: 16 bits
Compression mode: Lossy
Stream size: 255 MiB (11%)
Title: Дубляж [Blu-Ray]
Language: Russian

Text #1
ID: 3
Format: UTF-8
Codec ID: S_TEXT/UTF8
Codec ID/Info: UTF-8 Plain Text
Language: Russian

Text #2
ID: 4
Format: UTF-8
Codec ID: S_TEXT/UTF8
Codec ID/Info: UTF-8 Plain Text
Title: SDH
Language: English

Menu
00:00:00.000: en:Chapter.01
00:07:03.464: en:Chapter.02
00:12:50.936: en:Chapter.03
00:17:09.403: en:Chapter.04
00:22:30.140: en:Chapter.05
00:31:38.938: en:Chapter.06
00:36:59.967: en:Chapter.07
00:39:56.018: en:Chapter.08
00:48:35.537: en:Chapter.09
00:54:08.828: en:Chapter.10
01:03:33.392: en:Chapter.11
01:07:18.993: en:Chapter.12
01:12:54.953: en:Chapter.13
01:16:58.530: en:Chapter.14
01:19:37.022: en:Chapter.15
















Поделиться:




реклама партнёра


Вернуться к началу
 Профиль Отправить личное сообщение  
 
   Похожие торренты   Автор   Торрент   Размер 
В этой теме нет новых непрочитанных сообщений. Механик: Воскрешение / Mechanic: Resurrection [боевик, триллер, криминал, 2016] HDRip, Dub [Line]

salma3

903 | 205

1.46 ГБ

В этой теме нет новых непрочитанных сообщений. Механик: Воскрешение / Mechanic: Resurrection [боевик, триллер, криминал, 2016] HDRip-AVC, Dub [iTunes]

salma3

205 | 37

1.41 ГБ

В этой теме нет новых непрочитанных сообщений. Механик: Воскрешение / Mechanic: Resurrection [боевик, триллер, криминал, 2016] CAMRip, Mvo

salma3

967 | 23

1.37 ГБ

В этой теме нет новых непрочитанных сообщений. Механик: Воскрешение / Mechanic: Resurrection [Боевик, триллер, криминал, 2016] WEBRip, Mvo [КПК ]

marya111

463 | 20

335.13 МБ

В этой теме нет новых непрочитанных сообщений. Механик: Воскрешение / Mechanic: Resurrection [боевик, триллер, криминал, 2016] WEBRip, Mvo

salma3

1152 | 168

1.37 ГБ

В этой теме нет новых непрочитанных сообщений. Механик: Воскрешение / Mechanic: Resurrection (Боевик, триллер, криминал, 2016) BDRip от MegaPeer | A

marya111

799 | 103

1.46 ГБ

В этой теме нет новых непрочитанных сообщений. Механик: Воскрешение / Mechanic: Resurrection [Боевик, триллер, криминал, 2016] BDRip, Mvo [FocusStudio]

salma3

188 | 45

1.45 ГБ


Начать новую тему Ответить на тему  [ 1 сообщение ] 




Для Мосгорсуда, Роскомнадзора и рекламодателей:: mosgorsud-torrent[собачка]yandex.ru