Торрент файл
скачать торрент магнет ссылка Добавлен: 14 янв 2012, 15:25
Размер: 2.24 ГБ
Сидеров: 45
Личеров: 11
Автор

СообщениеДобавлено: 14 янв 2012, 15:25 

Не в сети
Супермодератор
Аватара пользователя
Дата регистрации:
11 апр 2010, 18:10
Спасибо: 5801 / 7
Сообщения: 56779
Большой выстрел / The Big Bang


«The search for the ultimate missing person ends... at the beginning of time.»

Перевод: Любительский (двухголосый), cубтитры: отсутствуют
Формат: HDRip-AVC, MKV, H.264, AC3
Страна: США
Режиссер: Тони Крантц
Жанр: боевик, триллер, детектив
Продолжительность: 01:41:17
Год выпуска: 2011

В ролях: Антонио Бандерас, Томас Кречманн, Уильям Фихтнер, Сиенна Гиллори, Делрой Линдо, Роберт Эрни Ли, Джеймс Ван, Дер Бик, Роберт Мэйллет, Рэйчел Хэндлер, Шон Кук

Описание: Частного детектива нанимают, чтобы найти пропавшую стриптизершу. Простое дело становится запутанным, когда каждый, кому он задавал вопросы, умирает.



Видео: 1280x544 (2,35:1), 23,976 fps, AVC (x264), High@L4.1, ~2779 kbps,0.166 bit/pixel
Аудио: 48 kHz, AC3 Dolby Digital, 3/2 (L,C,R,l,r) + LFE ch, ~384 kbps avg



Общее
Уникальный идентификатор: 186229379327972548912753298336268365147 (0x8C1A794C162A7B7CB0413BD7C5EB2D5B)
Полное имя: D:\Фильмы\bolshoi_vistrel.mkv
Формат: Matroska
Размер файла: 2,24 Гбайт
Продолжительность: 1 ч. 41 м.
Общий поток: 3170 Кбит/сек
Название фильма: Rip by Tembr
Дата кодирования: UTC 2011-05-08 15:30:18
Программа кодирования: mkvmerge v3.2.0 ('Beginnings') built on Feb 12 2010 16:46:17
Библиотека кодирования: libebml v0.7.9 + libmatroska v0.8.1

Видео
Идентификатор: 1
Формат: AVC
Формат/Информация: Advanced Video Codec
Профиль формата: High@L4.1
Параметр CABAC формата: Да
Параметр ReFrames формата: 3 кадра
Параметры GOP формата: M=4, N=24
Идентификатор кодека: V_MPEG4/ISO/AVC
Продолжительность: 1 ч. 41 м.
Вид битрейта: Переменный
Битрейт: 2779 Кбит/сек
Максимальный битрейт: 15,0 Мбит/сек
Ширина: 1280 пикс.
Высота: 544 пикс.
Соотношение сторон: 2,35:1
Соотношение сторон в оригинале: 2,35:1
Частота кадров: 23,976 кадр/сек
Цветовое пространство: YUV
Подвыборка цветности: 4:2:0
Битовая глубина: 8 бит
Тип развёртки: Прогрессивная
Бит/(Пиксели*Кадры): 0.166
Размер потока: 1,93 Гбайт (86%)
Заголовок: Большой выстрел.[NoLimits-Team.ru]
Библиотека кодирования: x264 core 115 r1937 aa21558
Настройки программы: cabac=1 / ref=1 / deblock=1:0:0 / analyse=0x3:0x3 / me=dia / subme=1 / psy=1 / psy_rd=0.00:0.00 / mixed_ref=0 / me_range=16 / chroma_me=1 / trellis=0 / 8x8dct=1 / cqm=0 / deadzone=21,11 / fast_pskip=1 / chroma_qp_offset=0 / threads=3 / sliced_threads=0 / slices=4 / nr=0 / decimate=1 / interlaced=0 / bluray_compat=1 / constrained_intra=0 / bframes=3 / b_pyramid=1 / b_adapt=1 / b_bias=0 / direct=1 / weightb=1 / open_gop=0 / weightp=1 / keyint=24 / keyint_min=1 / scenecut=40 / intra_refresh=0 / rc_lookahead=0 / rc=abr / mbtree=0 / bitrate=2779 / ratetol=1.0 / qcomp=0.60 / qpmin=0 / qpmax=69 / qpstep=4 / vbv_maxrate=15000 / vbv_bufsize=15000 / nal_hrd=vbr / ip_ratio=1.10 / pb_ratio=1.10 / aq=1:1.00
Язык: English

Аудио
Идентификатор: 2
Формат: AC-3
Формат/Информация: Audio Coding 3
Расширение режима: CM (complete main)
Идентификатор кодека: A_AC3
Продолжительность: 1 ч. 41 м.
Вид битрейта: Постоянный
Битрейт: 384 Кбит/сек
Каналы: 6 каналов
Расположение каналов: Front: L C R, Side: L R, LFE
Частота: 48,0 КГц
Битовая глубина: 16 бит
Метод сжатия: С потерями
Размер потока: 278 Мбайт (12%)
Заголовок: Профессиональное (многоголосое)
Язык: Russian








Поделиться:




реклама партнёра


Вернуться к началу
 Профиль Отправить личное сообщение  
 
   Похожие торренты   Автор   Торрент   Размер 
В этой теме нет новых непрочитанных сообщений. Выстрел / Dishkiyaoon [боевик, триллер, 2014] HDRip, Mvo+Sub

salma3

15 | 7

2.16 ГБ

В этой теме нет новых непрочитанных сообщений. Пиф-паф / Bang Bang [боевик, мелодрама, комедия, 2014] HDRip, Mvo

salma3

535 | 20

2.16 ГБ

В этой теме нет новых непрочитанных сообщений. Опережая выстрел [1-8 из 8] [Боевик, криминал, детектив,2011] DVDRip

iopuk60

0 | 10

4.34 ГБ

В этой теме нет новых непрочитанных сообщений. Один выстрел  / One Shot (Джон Лойд) [Триллер, 2014] HDRip, avo

Dracon

4 | 3

1.37 ГБ

В этой теме нет новых непрочитанных сообщений. Рыцарь дня / Пиф-паф / Bang Bang [боевик, мелодрама, комедия, 2014] DVDRip, Mvo+Sub

salma3

47 | 4

2.19 ГБ

В этой теме нет новых непрочитанных сообщений. Пиф-паф / Bang Bang [боевик, мелодрама, комедия, 2014] BDRip 720p, Mvo

salma3

46 | 29

6.84 ГБ

В этой теме нет новых непрочитанных сообщений. Пиф-паф / Bang Bang [Боевик, мелодрама, комедия, 2014] DVDRip, Dvo+Sub

salma3

67 | 6

1.65 ГБ


Начать новую тему Ответить на тему  [ 1 сообщение ] 




Для Мосгорсуда, Роскомнадзора и рекламодателей:: mosgorsud-torrent[собачка]yandex.ru