Торрент файл
скачать торрент магнет ссылка Добавлен: 14 янв 2012, 15:24
Размер: 2.18 ГБ
Сидеров: 75
Личеров: 11
Автор

СообщениеДобавлено: 14 янв 2012, 15:24 

Не в сети
Супермодератор
Аватара пользователя
Дата регистрации:
11 апр 2010, 18:10
Спасибо: 5960 / 7
Сообщения: 56765
Зеленый шершень / The Green Hornet

Перевод: Профессиональный (полное дублирование), cубтитры: русские, английские
Формат: HDRip-AVC, MKV, H.264, AC3
Страна: США
Режиссер: Мишель Гондри
Жанр: боевик, комедия, криминал
Продолжительность: 01:54:06
Год выпуска: 2011

В ролях: Сет Роген, Джей Чоу, Кристоф Вальц, Кэмерон Диаз, Том Уилкинсон, Дэвид Харбор, Эдвард Джеймс Олмос, Джэми Харрис, Чад Коулмэн, Эдвард Ферлонг

Описание: Сын медиа-магната «прожигает» свою жизнь в вечных пьянках и бесчисленных случайных связях. Но после неожиданной смерти отца он наконец осознает бесцельность своего существования и решает все изменить. Вместе с другом они становятся супергероями, которые борются с преступностью ее же методами, совершенно не считаясь с законом…



Видео: 1024 x 428 (2.393), 23.976 fps, AVC MPEG-4 High@L3.1, х264, ~1 861 kbps, 0.177 bit/pixel
Аудио:1: русский 48 kHz, AC3 Dolby Digital, 3/2 (L,C,R,l,r) + LFE ch, ~384 kbps [Профессиональный (полное дублирование)]
Аудио:2: английский 48 kHz, AC3 Dolby Digital, 3/2 (L,C,R,l,r) + LFE ch, ~384 kbps [оригинал]

Лицензия
General
Unique ID: 254139016758894763460298735885068680387 (0xBF3164ECFF96BC85B0E50364E3BE3CC3)
Complete name: E:\РЕЛИЗЫ\Все релизы 15\zelenui_shershen_[tfile.ru].mkv
Format: Matroska
File size: 2.18 GiB
Duration: 1h 58mn
Overall bit rate: 2 629 Kbps
Movie name: Zeljonyj Shershen (2011) Release by Vaippp [OpenSharing Team]
Encoded date: UTC 2011-04-03 04:13:48
Writing application: mkvmerge v4.6.0 ('Still Crazy After All These Years') сборка от Mar 10 2011 02:50:32
Writing library: libebml v1.2.0 + libmatroska v1.1.0

Video
ID: 1
Format: AVC
Format/Info: Advanced Video Codec
Format profile: High@L3.1
Format settings, CABAC: Yes
Format settings, ReFrames: 9 frames
Codec ID: V_MPEG4/ISO/AVC
Duration: 1h 58mn
Bit rate: 1 861 Kbps
Width: 1 024 pixels
Height: 428 pixels
Display aspect ratio: 2.35:1
Frame rate: 23.976 fps
Color space: YUV
Chroma subsampling: 4:2:0
Bit depth: 8 bits
Scan type: Progressive
Bits/(Pixel*Frame): 0.177
Stream size: 1.50 GiB (69%)
Title: HDRip by Vaippp
Writing library: x264 core 112 r1867 22bfd31
Encoding settings: cabac=1 / ref=9 / deblock=1:-2:-1 / analyse=0x3:0x133 / me=umh / subme=9 / psy=1 / psy_rd=1.00:0.15 / mixed_ref=1 / me_range=32 / chroma_me=1 / trellis=2 / 8x8dct=1 / cqm=0 / deadzone=21,11 / fast_pskip=0 / chroma_qp_offset=-3 / threads=4 / sliced_threads=0 / nr=0 / decimate=1 / interlaced=0 / constrained_intra=0 / bframes=8 / b_pyramid=2 / b_adapt=2 / b_bias=0 / direct=3 / weightb=1 / open_gop=0 / weightp=2 / keyint=250 / keyint_min=23 / scenecut=40 / intra_refresh=0 / rc=2pass / mbtree=0 / bitrate=1861 / ratetol=1.0 / qcomp=0.70 / qpmin=10 / qpmax=51 / qpstep=4 / cplxblur=20.0 / qblur=0.5 / ip_ratio=1.40 / pb_ratio=1.30 / aq=1:0.90 / zones=160027,171021,q=35
Language: English

Audio #1
ID: 2
Format: AC-3
Format/Info: Audio Coding 3
Mode extension: CM (complete main)
Codec ID: A_AC3
Duration: 1h 58mn
Bit rate mode: Constant
Bit rate: 384 Kbps
Channel(s): 6 channels
Channel positions: Front: L C R, Side: L R, LFE
Sampling rate: 48.0 KHz
Bit depth: 16 bits
Compression mode: Lossy
Stream size: 327 MiB (15%)
Title: DUB R5
Language: Russian

Audio #2
ID: 3
Format: AC-3
Format/Info: Audio Coding 3
Mode extension: CM (complete main)
Codec ID: A_AC3
Duration: 1h 58mn
Bit rate mode: Constant
Bit rate: 384 Kbps
Channel(s): 6 channels
Channel positions: Front: L C R, Side: L R, LFE
Sampling rate: 48.0 KHz
Bit depth: 16 bits
Compression mode: Lossy
Stream size: 327 MiB (15%)
Title: Original
Language: English

Text #1
ID: 4
Format: UTF-8
Codec ID: S_TEXT/UTF8
Codec ID/Info: UTF-8 Plain Text
Title: Forced
Language: Russian

Text #2
ID: 5
Format: UTF-8
Codec ID: S_TEXT/UTF8
Codec ID/Info: UTF-8 Plain Text
Language: English





















Поделиться:




реклама партнёра


Вернуться к началу
 Профиль Отправить личное сообщение  
 
   Похожие торренты   Автор   Торрент   Размер 
В этой теме нет новых непрочитанных сообщений. Зеленый огонь / Green Fire [Драма, приключения, 1954] DVDRip, Mvo

salma3

18 | 3

1.37 ГБ

В этой теме нет новых непрочитанных сообщений. Зеленый ад / The Green Inferno (Элай Рот) [Ужасы, приключения, 2013] WEB-DLRip, dvo

Dracon

433 | 29

1.37 ГБ

В этой теме нет новых непрочитанных сообщений. Зеленый ад / The Green Inferno [ужасы, приключения, 2013] BDRip 1080p, Dvo

salma3

43 | 14

7.6 ГБ

В этой теме нет новых непрочитанных сообщений. Зеленый ад / The Green Inferno (Элай Рот) [Ужасы, приключения, 2013] WEB-DL 720p, avo

Dracon

937 | 79

3.05 ГБ

В этой теме нет новых непрочитанных сообщений. Зеленый ад / The Green Inferno (Элай Рот) [Ужасы, приключения, 2013] WEB-DLRip, avo

Dracon

4580 | 163

1.37 ГБ

В этой теме нет новых непрочитанных сообщений. Большой матч / Big Match (Хо Чхве) [Боевик, триллер, комедия, 2014] HDRip [GREEN TEA]

Dracon

116 | 5

1.46 ГБ

В этой теме нет новых непрочитанных сообщений. Хулиганы 3  / Green Street 3: Never Back Down [боевик, 2013] HDRip, Mvo

Dracon

29 | 4

1.37 ГБ


Начать новую тему Ответить на тему  [ 1 сообщение ] 




Для Мосгорсуда, Роскомнадзора и рекламодателей:: mosgorsud-torrent[собачка]yandex.ru