Торрент файл
скачать торрент магнет ссылка Добавлен: 14 янв 2012, 15:21
Размер: 2.18 ГБ
Сидеров: 38
Личеров: 6
Автор

СообщениеДобавлено: 14 янв 2012, 15:21 

Не в сети
Супермодератор
Аватара пользователя
Дата регистрации:
11 апр 2010, 18:10
Спасибо: 5802 / 7
Сообщения: 56779
Уличные войны / Street Wars

Перевод: Профессиональный (многоголосый, закадровый), cубтитры: отсутствуют
Формат: HDRip-AVC, MKV, H.264, AC3
Страна: США
Режиссер: Киони Ваксман
Жанр: боевик, триллер, драма
Продолжительность: 01:30:30
Год выпуска: 2011

В ролях: Стивен Сигал, Мегано Ори, Уильям "Бигслипс" Стюарт, Сара Линд, Эдриан Хью, Элизабет Тай, Кайл Кэсси, Дэвид Ричмонд-Пэк, Алекс Маллари мл., Экстасиа Сандерс, Дарси Лори, Байрон Манн...

Описание: Элая Кейн, командир специальной группы полиции Сиэтла, действующий под прикрытием, ведет беспощадную борьбу с преступностью, используя весь арсенал приемов боевых искусств. Его команда безоговорочно предана своему лидеру и следует за ним, вычищая улицы Сиэтла от бандитов, наркоторговцев и серийных убийц. Кейн и его спецкоманда ведут настоящие уличные войны.

[/field]

Видео: 1024x576 (16:9), 23.976 fps, AVC (x264) High@L4.1 ~2546 kbps avg, 0.180 bit/pixel

Аудио 1: Русский, 48 kHz, AC3, 6 ch, 448.00 kbps Профессиональный (многоголосый)
Аудио 2: Английский, 48 kHz, AC3, 6 ch, 448.00 kbps [Оригинал][/field]

Общее
Полное имя : Ulichnye.vojny.2011.P.HDRip-AVC.mkv
Формат : Matroska
Размер файла : 2,18 Гбайт
Продолжительность : 1 ч. 30 м.
Общий поток : 3439 Кбит/сек
Название фильма : avproh
Дата кодирования : UTC 2011-05-21 13:43:20
Программа кодирования : mkvmerge v4.7.0 ('Just Like You Imagined') сборка от Apr 21 2011 01:13:14
Библиотека кодирования : libebml v1.2.0 + libmatroska v1.1.0

Видео
Идентификатор : 1
Формат : AVC
Формат/Информация : Advanced Video Codec
Профиль формата : High@L4.1
Параметр CABAC формата : Да
Параметр ReFrames формата : 11 кадров
Идентификатор кодека : V_MPEG4/ISO/AVC
Продолжительность : 1 ч. 30 м.
Битрейт : 2546 Кбит/сек
Ширина : 1024 пикс.
Высота : 576 пикс.
Соотношение сторон : 16:9
Частота кадров : 23,976 кадр/сек
Цветовое пространство : YUV
Подвыборка цветности : 4:2:0
Битовая глубина : 8 бит
Тип развёртки : Прогрессивная
Бит/(Пиксели*Кадры) : 0.180
Размер потока : 1,57 Гбайт (72%)
Библиотека кодирования : x264 core 114 r1913 5fd3dce
Настройки программы : cabac=1 / ref=11 / deblock=1:-2:-1 / analyse=0x3:0x113 / me=umh / subme=9 / psy=1 / psy_rd=1.00:0.10 / mixed_ref=1 / me_range=32 / chroma_me=1 / trellis=2 / 8x8dct=1 / cqm=0 / deadzone=21,11 / fast_pskip=1 / chroma_qp_offset=-3 / threads=9 / sliced_threads=0 / nr=0 / decimate=1 / interlaced=0 / constrained_intra=0 / bframes=10 / b_pyramid=2 / b_adapt=2 / b_bias=0 / direct=3 / weightb=1 / open_gop=0 / weightp=0 / keyint=250 / keyint_min=23 / scenecut=40 / intra_refresh=0 / rc_lookahead=80 / rc=2pass / mbtree=1 / bitrate=2546 / ratetol=1.0 / qcomp=0.60 / qpmin=0 / qpmax=69 / qpstep=4 / cplxblur=20.0 / qblur=0.5 / ip_ratio=1.40 / aq=2:0.90
Язык : English

Аудио #1
Идентификатор : 2
Формат : AC-3
Формат/Информация : Audio Coding 3
Расширение режима : CM (complete main)
Идентификатор кодека : A_AC3
Продолжительность : 1 ч. 30 м.
Вид битрейта : Постоянный
Битрейт : 448 Кбит/сек
Каналы : 6 каналов
Расположение каналов : Front: L C R, Side: L R, LFE
Частота : 48,0 КГц
Битовая глубина : 16 бит
Метод сжатия : С потерями
Размер потока : 290 Мбайт (13%)
Язык : Russian

Аудио #2
Идентификатор : 3
Формат : AC-3
Формат/Информация : Audio Coding 3
Расширение режима : CM (complete main)
Идентификатор кодека : A_AC3
Продолжительность : 1 ч. 30 м.
Вид битрейта : Постоянный
Битрейт : 448 Кбит/сек
Каналы : 6 каналов
Расположение каналов : Front: L C R, Side: L R, LFE
Частота : 48,0 КГц
Битовая глубина : 16 бит
Метод сжатия : С потерями
Размер потока : 290 Мбайт (13%)
Язык : English







Поделиться:




реклама партнёра


Вернуться к началу
 Профиль Отправить личное сообщение  
 
   Похожие торренты   Автор   Торрент   Размер 
В этой теме нет новых непрочитанных сообщений. Наёмник: Отпущение грехов / Absolution (Киони Ваксман) [Боевик, триллер, криминал, приключения, 2015] HDRip, avo

Dracon

6 | 0

1.37 ГБ

В этой теме нет новых непрочитанных сообщений. Наёмник: Отпущение грехов / Absolution (Киони Ваксман) [Боевик, триллер, криминал, приключения, 2015] BDRip 720p, avo

Dracon

514 | 36

3.96 ГБ

В этой теме нет новых непрочитанных сообщений. Наёмник: Отпущение грехов / Absolution (Киони Ваксман) [Боевик, триллер, криминал, приключения, 2015] BDRip 1080p, avo

Dracon

490 | 114

7.75 ГБ

В этой теме нет новых непрочитанных сообщений. Последний друид: Войны гармов / Garm Wars: The Last Druid [фантастика, боевик, триллер, 2014] HDRip, Dvo

salma3

783 | 15

1.45 ГБ

В этой теме нет новых непрочитанных сообщений. Дорожные войны / Road Wars [фантастика, боевик, 2015] HDRip, Avo

salma3

90 | 7

1.37 ГБ

В этой теме нет новых непрочитанных сообщений. Лос-Анджелесские войны / Войны Лос-Анджелеса / L.A. Wars [боевик, 1994] VHSRip, Avo

salma3

3 | 3

1.13 ГБ

В этой теме нет новых непрочитанных сообщений. Звёздные войны: Пробуждение силы / Star Wars: The Force Awakens [Фантастика, фэнтези, боевик, приключения, 2015] HDRip, Dub [чистый звук]

salma3

534 | 15

1.46 ГБ


Начать новую тему Ответить на тему  [ 1 сообщение ] 




Для Мосгорсуда, Роскомнадзора и рекламодателей:: mosgorsud-torrent[собачка]yandex.ru