Торрент файл
скачать торрент магнет ссылка Добавлен: 14 янв 2012, 15:18
Размер: 1.41 ГБ
Сидеров: 11
Личеров: 5
Автор

СообщениеДобавлено: 14 янв 2012, 15:18 

Не в сети
Супермодератор
Аватара пользователя
Дата регистрации:
11 апр 2010, 18:10
Спасибо: 5802 / 7
Сообщения: 56779
Короли улиц 2 / Street Kings 2

Перевод: Профессиональный (многоголосый, закадровый), cубтитры: отсутствуют
Формат: HDRip-AVC, MKV, H.264, AC3
Страна: США
Режиссер: Крис Фишер
Жанр: боевик, драма, криминал
Продолжительность: 01:32:22
Год выпуска: 2011

В ролях: Рэй Лиотта, Шон Хэтоси, Скотт Норман, Клифтон Пауэлл, Кевин Чэпмен, Инбар Лави, Шарлотта Росс, Стефани Коттон, Линда Бостон, Кори Эмануэл Уилсон...

Описание: Рэй Лиотта обеспечивает интенсивную и напряженную работу в этом взрывчатом продолжении городского криминального триллера Короли улиц. Лиотта играет Детройтского детектива Марти Кингстона, лидера полицейских под прикрытием, которые были систематически убиты один за другим. Чтобы раскрыть зверские убийства, Кингстон объединяет свои усилия с дерзким и молодым детективом из отдела по расследованиям убийств. Но ни один из них не готов к шокирующей коррупции, их расследования будут раскрывать ошеломленные тайны, которые заставят столкнуться их с предательством и местью.

[/field]

Видео: 1024x576 (16:9), 23.976 fps, AVC, x264, High@L4.0, ~1 765 Kbps avg, 0.128 bits/pixel
Аудио: 48 kHz, AC3 Dolby Digital, 3/2 (L,C,R,l,r) + LFE ch, ~384.00 kbps avg

General
Complete name : L:Koroli ulic.chopper887.mkv
Format : Matroska
File size : 1.41 GiB
Duration : 1h 32mn
Overall bit rate : 2 192 Kbps
Movie name : Koroli ulic.chopper887
Encoded date : UTC 2011-06-06 18:51:08
Writing application : mkvmerge v4.4.0 ('Die Wiederkehr') built on Nov 7 2010 22:17:07
Writing library : libebml v1.0.0 + libmatroska v1.0.0

Video
ID : 1
Format : AVC
Format/Info : Advanced Video Codec
Format profile : High@L4.0
Format settings, CABAC : Yes
Format settings, ReFrames : 10 frames
Muxing mode : Container profile=Unknown@4.0
Codec ID : V_MPEG4/ISO/AVC
Duration : 1h 32mn
Bit rate : 1 765 Kbps
Nominal bit rate : 1 807 Kbps
Width : 1 024 pixels
Height : 576 pixels
Display aspect ratio : 16:9
Frame rate : 23.976 fps
Resolution : 24 bits
Colorimetry : 4:2:0
Scan type : Progressive
Bits/(Pixel*Frame) : 0.125
Stream size : 1.14 GiB (80%)
Title : Koroli ulic.chopper887
Writing library : x264 core 114 r1913 5fd3dce
Encoding settings : cabac=1 / ref=10 / deblock=1:-2:-1 / analyse=0x3:0x133 / me=umh / subme=9 / psy=1 / psy_rd=1.00:0.10 / mixed_ref=1 / me_range=32 / chroma_me=1 / trellis=2 / 8x8dct=1 / cqm=0 / deadzone=21,11 / fast_pskip=0 / chroma_qp_offset=-3 / threads=3 / sliced_threads=0 / nr=0 / decimate=1 / interlaced=0 / constrained_intra=0 / bframes=11 / b_pyramid=2 / b_adapt=2 / b_bias=0 / direct=3 / weightb=1 / open_gop=0 / weightp=2 / keyint=250 / keyint_min=23 / scenecut=40 / intra_refresh=0 / rc_lookahead=80 / rc=2pass / mbtree=1 / bitrate=1807 / ratetol=1.0 / qcomp=0.70 / qpmin=0 / qpmax=69 / qpstep=4 / cplxblur=20.0 / qblur=0.5 / ip_ratio=1.40 / aq=1:1.10

Audio
ID : 2
Format : AC-3
Format/Info : Audio Coding 3
Codec ID : A_AC3
Duration : 1h 32mn
Bit rate mode : Constant
Bit rate : 384 Kbps
Channel(s) : 6 channels
Channel positions : Front: L C R, Surround: L R, LFE
Sampling rate : 48.0 KHz
Stream size : 254 MiB (18%)
Title : MVO







Поделиться:




реклама партнёра


Вернуться к началу
 Профиль Отправить личное сообщение  
 
   Похожие торренты   Автор   Торрент   Размер 
В этой теме нет новых непрочитанных сообщений. Fresh Off The Street / Свежие с Улиц (2016) WEB-DL

amadei

6 | 5

2.43 ГБ

В этой теме нет новых непрочитанных сообщений. Леди-детектив мисс Фрайни Фишер / Miss Fisher's Murder Mysteries [S01-02] [драма, криминал, детектив, 2012-2013] DVDRip, HDRip, Mvo

salma3

151 | 102

15.92 ГБ

В этой теме нет новых непрочитанных сообщений. Мачо и ботан 2 / 22 Jump Street [комедия, боевик, криминал, 2014] HDRip, Dub [iPad]

salma3

92 | 4

1.5 ГБ

В этой теме нет новых непрочитанных сообщений. Мачо и ботан 2 / 22 Jump Street [боевик, комедия, криминал, 2014] HDRip, Dub [лицензия]

Dracon

137 | 4

1.37 ГБ

В этой теме нет новых непрочитанных сообщений. Мачо и ботан / 21 Jump Street [боевик, комедия, криминал, 2012] HDRip, Dub [iPad]

salma3

18 | 2

1.47 ГБ

В этой теме нет новых непрочитанных сообщений. Уличный рыцарь / Street Knight [боевик, драма, криминал, 1993] DVDRip, Mvo

salma3

13 | 4

1.46 ГБ

В этой теме нет новых непрочитанных сообщений. Волк с Уолл-стрит / The Wolf of Wall Street [драма, комедия, криминал, биография, 2013] HDRip-AVC, Dub+Sub

Dracon

0 | 5

2.3 ГБ


Начать новую тему Ответить на тему  [ 1 сообщение ] 




Для Мосгорсуда, Роскомнадзора и рекламодателей:: mosgorsud-torrent[собачка]yandex.ru