Торрент файл
скачать торрент магнет ссылка Добавлен: 14 янв 2012, 15:17
Размер: 744.6 МБ
Сидеров: 21
Личеров: 5
Автор

СообщениеДобавлено: 14 янв 2012, 15:17 

Не в сети
Супермодератор
Аватара пользователя
Дата регистрации:
11 апр 2010, 18:10
Спасибо: 5802 / 7
Сообщения: 56779
Короли улиц 2 / Street Kings 2: Motor City (Unrated)

Перевод: Профессиональный (многоголосый, закадровый) [Лицензия]
Субтитры: отсутствуют
Формат: LowHDRip, AVI, XviD, MP3
Страна: США
Режиссер: Крис Фишер / Chris Fisher
Жанр: Боевик, драма, криминал
Продолжительность: 01:32:22
Год выпуска: 2011

В ролях: Рэй Лиотта, Шон Хэтоси, Скотт Норман, Клифтон Пауэлл, Кевин Чэпмен, Инбар Лави, Шарлотта Росс, Стефани Коттон, Линда Бостон, Кори Эмануэл Уилсон ...

Описание: Рэй Лиотта обеспечивает интенсивную и напряженную работу в этом взрывчатом продолжении городского криминального триллера Короли улиц. Лиотта играет Детройтского детектива Марти Кингстона, лидера полицейских под прикрытием, которые были систематически убиты один за другим. Чтобы раскрыть зверские убийства, Кингстон объединяет свои усилия с дерзким и молодым детективом из отдела по расследованиям убийств. Но ни один из них не готов к шокирующей коррупции, их расследования будут раскрывать ошеломленные тайны, которые заставят столкнуться их с предательством и местью.



Видео: 720x400 (16:9), 23.976 fps, XviD MPEG-4 ~990 kbps avg, 0.14 bit/pixel
Аудио: 48 kHz, МР3, 2 ch, 128.00 kbps

Общее
Полное имя : Koroli.ulits.2.2011.P.HDRip.745MB.avi
Формат : AVI
Формат/Информация : Audio Video Interleave
Размер файла : 745 Мбайт
Продолжительность : 1 ч. 32 м.
Общий поток : 1127 Кбит/сек
Программа кодирования : VirtualDubMod 1.5.10.3 (build 2550/release)
Библиотека кодирования : VirtualDubMod build 2550/release

Видео
Идентификатор : 0
Формат : MPEG-4 Visual
Профиль формата : Advanced Simple@L5
Параметр BVOP формата : 1
Параметр QPel формата : Нет
Параметр GMC формата : Без точки перехода
Параметр матрицы формата : Выборочная
Идентификатор кодека : XVID
Идентификатор кодека/Подсказка : XviD
Продолжительность : 1 ч. 32 м.
Битрейт : 990 Кбит/сек
Ширина : 720 пикс.
Высота : 400 пикс.
Соотношение сторон : 16:9
Частота кадров : 23,976 кадр/сек
Цветовое пространство : YUV
Подвыборка цветности : 4:2:0
Битовая глубина : 8 бит
Тип развёртки : Прогрессивная
Метод сжатия : С потерями
Бит/(Пиксели*Кадры) : 0.143
Размер потока : 654 Мбайт (88%)
Библиотека кодирования : XviD 1.2.1 (UTC 2008-12-04)

Аудио
Идентификатор : 1
Формат : MPEG Audio
Версия формата : Version 1
Профиль формата : Layer 3
Режим : Joint stereo
Расширение режима : MS Stereo
Идентификатор кодека : 55
Идентификатор кодека/Подсказка : MP3
Продолжительность : 1 ч. 32 м.
Вид битрейта : Постоянный
Битрейт : 128 Кбит/сек
Каналы : 2 канала
Частота : 48,0 КГц
Метод сжатия : С потерями
Размер потока : 84,6 Мбайт (11%)
Выравнивание : Соединение по промежуткам
Продолжительность промежутка : 42 мс. (1,00 видеокадр)
Время предзагрузки промежутка : 504 ms








Поделиться:




реклама партнёра


Вернуться к началу
 Профиль Отправить личное сообщение  
 
   Похожие торренты   Автор   Торрент   Размер 
В этой теме нет новых непрочитанных сообщений. Лживая Луна / Liar's Moon (Дэвид Фишер / David Fisher) [1982г., драма, DVDRip] AVO

Alfredovich

11 | 4

1.44 ГБ

В этой теме нет новых непрочитанных сообщений. Леди-детектив мисс Фрайни Фишер / Miss Fisher's Murder Mysteries / 2 сезон 1-13 серии из 13 [драма, криминал, детектив, 2012] DVDRip, Mvo

salma3

145 | 54

5.43 ГБ

В этой теме нет новых непрочитанных сообщений. Леди-детектив мисс Фрайни Фишер / Miss Fisher's Murder Mysteries [S01-02] [драма, криминал, детектив, 2012-2013] DVDRip, HDRip, Mvo

salma3

151 | 102

15.92 ГБ

В этой теме нет новых непрочитанных сообщений. Леди-детектив мисс Фрайни Фишер / Miss Fisher's Murder Mysteries / 3 сезон 1-8 серии из 8 [Детектив, криминал, драма, 2015] WEB-DLRip, Mvo [ViruseProject]

salma3

250 | 82

4.71 ГБ

В этой теме нет новых непрочитанных сообщений. Fresh Off The Street / Свежие с Улиц (2016) WEB-DL

amadei

6 | 5

2.43 ГБ

В этой теме нет новых непрочитанных сообщений. City Street Racing [Simulation, 2014] [Лицензия]

DBCooper

34 | 5

187.73 МБ

В этой теме нет новых непрочитанных сообщений. Мальчишник / Между нами мальчиками / A Guy Thing (Крис Кох / Chris Koch) [2003г., мелодрама, комедия, BDRip-AVC] MVO

Alfredovich

36 | 7

2.9 ГБ


Начать новую тему Ответить на тему  [ 1 сообщение ] 




Для Мосгорсуда, Роскомнадзора и рекламодателей:: mosgorsud-torrent[собачка]yandex.ru