Торрент файл
скачать торрент магнет ссылка Добавлен: 14 янв 2012, 15:08
Размер: 1.51 ГБ
Сидеров: 134
Личеров: 8
Автор

СообщениеДобавлено: 14 янв 2012, 15:08 

Не в сети
Супермодератор
Аватара пользователя
Дата регистрации:
11 апр 2010, 18:10
Спасибо: 5799 / 7
Сообщения: 56779
Дом восходящего солнца / House of the Rising Sun

Перевод: Любительский (двухголосый), cубтитры:английские
Формат: HDRip-AVC, MKV, H.264, AC3
Страна: США
Режиссер: Брайан Миллер, Брайан А Миллер
Жанр: боевик, триллер, драма, криминал
Продолжительность: 01:27:36
Год выпуска: 2011

В ролях: Дэйв Батиста, Эми Смарт, Доминик Пурселл, Дэнни Трехо, Крэйг Фэйрбрасс, Брайан Вандер Арк, Рой Ораскин, Тим Филдс, Дебра Харрисон-Лоу, Лайл Кэйнаус

Описание: Рэй, экс-полицейский, начинает новую жизнь. Но однажды вечером, ночной клуб в котором он работает, ограблен, и сын владельца застрелен. Преступное прошлое Рэя делает его главным подозреваемым, и он начинает искать преступника что бы очистить свое имя.

[/field]

Релиз группа:FireBit

Видео: 1280x720 (16:9), 23.976 fps,AVC, х264,Main@L3.1, ~1 655 Kbps, 0.075 bit/pixel

Аудио #1: Русский:48.0 KHz,AC3,6 ch.,~448kbps avg Любительский (двухголосый)

Audio #2:Английский:48.0 KHz,AC3,6 ch.,~320 kbps avg [Оригинал]

General
Unique ID: 187599900844362942352995382382525293555 (0x8D226D39975F6472BC7B2591B25A23F3)
Complete name: E:\Загрузки\Дом.восходящего.солнца.2011.L2.Rus.Eng.BDRip.x264.FireBit.mkv
Format: Matroska
File size: 1.51 GiB
Duration: 1h 27mn
Overall bit rate: 2 472 Kbps
Movie name: Дом восходящего солнца / House of the Rising Sun (2011) BDRip-AVC от FireBit
Encoded date: UTC 2011-07-08 21:00:48
Writing application: mkvmerge v2.3.0 ('Freak U') built on Sep8 2008 18:32:16
Writing library: libebml v0.7.7 + libmatroska v0.8.1

Video
ID: 1
Format: AVC
Format/Info: Advanced Video Codec
Format profile: Main@L3.1
Format settings, CABAC: Yes
Format settings, ReFrames: 4 frames
Codec ID: V_MPEG4/ISO/AVC
Duration: 1h 27mn
Bit rate: 1 655 Kbps
Width: 1 280 pixels
Height: 720 pixels
Display aspect ratio: 16:9
Frame rate: 23.976 fps
Color space: YUV
Chroma subsampling: 4:2:0
Bit depth: 8 bits
Scan type: Progressive
Bits/(Pixel*Frame): 0.075
Stream size: 1.01 GiB (67%)
Language: English

Audio #1
ID: 2
Format: AC-3
Format/Info: Audio Coding 3
Mode extension: CM (complete main)
Codec ID: A_AC3
Duration: 1h 27mn
Bit rate mode: Constant
Bit rate: 448 Kbps
Channel(s): 6 channels
Channel positions: Front: L C R, Side: L R, LFE
Sampling rate: 48.0 KHz
Bit depth: 16 bits
Compression mode: Lossy
Delay relative to video: 28ms
Stream size: 281 MiB (18%)
Language: Russian

Audio #2
ID: 3
Format: AC-3
Format/Info: Audio Coding 3
Mode extension: CM (complete main)
Codec ID: A_AC3
Duration: 1h 27mn
Bit rate mode: Constant
Bit rate: 320 Kbps
Channel(s): 6 channels
Channel positions: Front: L C R, Side: L R, LFE
Sampling rate: 48.0 KHz
Bit depth: 16 bits
Compression mode: Lossy
Delay relative to video: 284ms
Stream size: 200 MiB (13%)
Language: English

Text #1
ID: 4
Format: UTF-8
Codec ID: S_TEXT/UTF8
Codec ID/Info: UTF-8 Plain Text
Language: English

Text #2
ID: 5
Format: UTF-8
Codec ID: S_TEXT/UTF8
Codec ID/Info: UTF-8 Plain Text
Language: English








Поделиться:




реклама партнёра


Вернуться к началу
 Профиль Отправить личное сообщение  
 
   Похожие торренты   Автор   Торрент   Размер 
В этой теме нет новых непрочитанных сообщений. Принц / The Prince (Брайан А. Миллер) [2014, Боевик, триллер, криминал, драма, WEB-DLRip] avo

Nickolas3435

79 | 4

748.5 МБ

В этой теме нет новых непрочитанных сообщений. Принц / The Prince (Брайан А Миллер) [Боевик, Триллер, 2014] HDRip, Mvo [iTunes]

Dracon

252 | 16

1.37 ГБ

В этой теме нет новых непрочитанных сообщений. Добро пожаловать в рай  / Vice (Брайан А Миллер) [Фантастика, боевик, триллер, приключения, 2015] HDRip, dvo

Dracon

4 | 2

1.37 ГБ

В этой теме нет новых непрочитанных сообщений. Добро пожаловать в рай / Vice (Брайан А Миллер) [Фантастика, боевик, триллер, приключения, 2015] HDRip, Dub [iTunes]

Dracon

156 | 6

1.42 ГБ

В этой теме нет новых непрочитанных сообщений. Принц / The Prince (Брайан А. Миллер) [Боевик, Триллер, 2014] BDRip 1080p, Mvo [iTunes]

Nickolas3435

38 | 2

8.38 ГБ

В этой теме нет новых непрочитанных сообщений. Принц / The Prince (Брайан А. Миллер) [Боевик, Триллер, 2014] BDRip 720p, Mvo [iTunes]

Dracon

58 | 2

3.52 ГБ

В этой теме нет новых непрочитанных сообщений. Добро пожаловать в рай / Vice (Брайан А Миллер) [Фантастика, боевик, триллер, приключения, 2015] WEB-DL 720p, dvo

Dracon

2367 | 741

3.16 ГБ


Начать новую тему Ответить на тему  [ 1 сообщение ] 




Для Мосгорсуда, Роскомнадзора и рекламодателей:: mosgorsud-torrent[собачка]yandex.ru