Торрент файл
скачать торрент магнет ссылка Добавлен: 10 янв 2012, 20:49
Размер: 1.46 ГБ
Сидеров: 264
Личеров: 25
Автор

СообщениеДобавлено: 10 янв 2012, 20:49 

Не в сети
Супермодератор
Аватара пользователя
Дата регистрации:
11 апр 2010, 18:10
Спасибо: 5801 / 7
Сообщения: 56779
Киллеры / Killers


«Их идеальный брак могут спасти только...»

Перевод: Профессиональный (полное дублирование)
Субтитры:отсутствуют
Формат: HDRip, MKV, H.264, AC3

Страна: США
Режиссер: Роберт Лукетич
Жанр: боевик, триллер, комедия, мелодрама

Продолжительность: 01:40:23
Год выпуска: 2010

В ролях: Эштон Катчер, Кэтрин Хайгл, Том Селлек, Кэтрин О’Хара, Кэтрин Уинник, Кевин Суссман, Лиза Энн Уолтер, Кэйси Уилсон, Роб Риггл, Мартин Мулл

Описание: Спенсер был безжалостным наемным убийцей, грозой мирового терроризма и перестал им быть, когда встретил Джен в лифте курортного отеля… Спустя три года они — обычная идеальная молодая пара, проживающая в американском пригороде. Но их безоблачному счастью приходит конец, когда за голову Спенсера объявляют награду в $20 млн, и все глубоко законспирированные профессионалы-киллеры начинают за ним охоту. Сумеют ли герои «угадать» убийц среди своих соседей, коллег, знакомых и друзей, чтобы уцелеть? Простит ли Джен мужа за «убийственную правду»? И кто «заказал» Спенсера?







Видео: 720x304 (2.35:1), 23.976 fps, AVC(x264) ~1691 kbps avg, 0.33 bit/pixel
Аудио: 48 kHz, AC3, 6 ch, ~384 kbps avg

Рип от:TswetkOFF
Релиз-Группа:




General
Unique ID: 187746031065431178440181114982827755122 (0x8D3E9200496F20108BED2A353D130672)
Complete name: D:\Films\killeri_[tfile.ru].mkv
Format: Matroska
File size: 1.46 GiB
Duration: 1h 40mn
Overall bit rate: 2 076 Kbps
Encoded date: UTC 2011-07-27 18:59:39
Writing application: mkvmerge v4.6.0 ('Still Crazy After All These Years') сборка от Apr1 2011 21:01:49
Writing library: libebml v1.2.0 + libmatroska v1.1.0

Video
ID: 1
Format: AVC
Format/Info: Advanced Video Codec
Format profile:
Format settings, CABAC: Yes
Format settings, ReFrames: 4 frames
Codec ID: V_MPEG4/ISO/AVC
Duration: 1h 40mn
Bit rate: 1 691 Kbps
Width: 720 pixels
Height: 304 pixels
Display aspect ratio: 2.35:1
Frame rate: 23.976 fps
Color space: YUV
Chroma subsampling: 4:2:0
Bit depth: 8 bits
Scan type: Progressive
Bits/(Pixel*Frame): 0.322
Stream size: 1.16 GiB (80%)
Writing library: x264 core 115 r1937 aa21558
Encoding settings: cabac=1 / ref=2 / deblock=1:-1:-1 / analyse=0x3:0x113 / me=hex / subme=6 / psy=1 / psy_rd=1.00:0.20 / mixed_ref=1 / me_range=16 / chroma_me=1 / trellis=1 / 8x8dct=1 / cqm=0 / deadzone=21,11 / fast_pskip=1 / chroma_qp_offset=-3 / threads=3 / sliced_threads=0 / nr=0 / decimate=0 / interlaced=0 / bluray_compat=0 / constrained_intra=0 / bframes=3 / b_pyramid=2 / b_adapt=1 / b_bias=0 / direct=1 / weightb=1 / open_gop=0 / weightp=1 / keyint=250 / keyint_min=23 / scenecut=40 / intra_refresh=0 / rc_lookahead=30 / rc=2pass / mbtree=1 / bitrate=1691 / ratetol=1.0 / qcomp=0.60 / qpmin=0 / qpmax=69 / qpstep=4 / cplxblur=20.0 / qblur=0.5 / ip_ratio=1.40 / aq=1:1.00

Audio
ID: 2
Format: AC-3
Format/Info: Audio Coding 3
Mode extension: CM (complete main)
Codec ID: A_AC3
Duration: 1h 40mn
Bit rate mode: Constant
Bit rate: 384 Kbps
Channel(s): 6 channels
Channel positions: Front: L C R, Side: L R, LFE
Sampling rate: 48.0 KHz
Bit depth: 16 bits
Compression mode: Lossy
Stream size: 276 MiB (18%)

















Поделиться:




реклама партнёра


Вернуться к началу
 Профиль Отправить личное сообщение  
 
   Похожие торренты   Автор   Торрент   Размер 
В этой теме нет новых непрочитанных сообщений. Киллеры / Killers [Боевик, комедия, мелодрама, 2010] BDRip, Avo

salma3

74 | 7

1.45 ГБ

В этой теме нет новых непрочитанных сообщений. Убийцы / Killers [Боевик, триллер, драма, криминал, 2014] BDRip 720p, Dvo+Sub

salma3

100 | 6

6.04 ГБ

В этой теме нет новых непрочитанных сообщений. Убийцы на замену / The Replacement Killers [боевик, триллер, драма, криминал, 1998] BDRip, Dub+Sub

salma3

20 | 5

1.46 ГБ

В этой теме нет новых непрочитанных сообщений. Цветок у дороги / The Road Killers [Боевик, триллер, драма, криминал, 1994] DVDRip, Avo

salma3

14 | 1

1.46 ГБ

В этой теме нет новых непрочитанных сообщений. Убийцы вампирш-лесбиянок / Lesbian Vampire Killers [ужасы, боевик, чёрная комедия, 2009] BDRip, Mvo [Лицензия]

salma3

8 | 3

1.46 ГБ

В этой теме нет новых непрочитанных сообщений. Город грехов 2: Женщина, ради которой стоит убивать / Sin City: A Dame to Kill For (Фрэнк Миллер, Роберт Родригес) [2014, боевик, триллер, криминал, HDRip | Лицезия] Dub

Dracon

3626 | 102

1.46 ГБ

В этой теме нет новых непрочитанных сообщений. Боевик Джексон / Action Jackson [боевик, триллер, комедия, криминал, 1988] BDRip 1080p, Dub+Mvo+Avo

salma3

31 | 34

10.82 ГБ


СообщениеДобавлено: 10 янв 2012, 23:05 

Не в сети
Релизёр
Аватара пользователя
Дата регистрации:
02 апр 2011, 13:05
Возраст: 34
Спасибо: 55 / 32
Сообщения: 168
Откуда: Калининград
Фильм просто супер!!! Можно смотреть в любом кругу. :geek:

_________________
Логика может привести Вас от пункта А к пункту Б, а воображение — куда угодно. © Эйнштейн


Вернуться к началу
 Профиль Отправить личное сообщение  
 
Начать новую тему Ответить на тему  [ Сообщений: 2 ] 




Для Мосгорсуда, Роскомнадзора и рекламодателей:: mosgorsud-torrent[собачка]yandex.ru