Торрент файл
скачать торрент магнет ссылка Добавлен: 10 янв 2012, 20:47
Размер: 2.09 ГБ
Сидеров: 11
Личеров: 9
Автор

СообщениеДобавлено: 10 янв 2012, 20:47 

Не в сети
Супермодератор
Аватара пользователя
Дата регистрации:
11 апр 2010, 18:10
Спасибо: 5801 / 7
Сообщения: 56779
Трюкач / The Stunt Man


Перевод: Профессиональный (полное дублирование), cубтитры: Русские (полные, отключаемые)
Формат: HDRip, MKV, H.264, AC3
Страна: США
Режиссер: Ричард Раш
Жанр: боевик, триллер, драма, мелодрама, комедия
Продолжительность: 02:10:41
Год выпуска: 1980
В ролях: Питер О’Тул, Стив Рейлсбэк, Барбара Херши, Аллен Гарфилд, Алекс Рокко, Шарон Фаррелл, Адам Рорк, Филип Брунс, Чарльз Бэйл, Джон Гарвуд
Описание: Скрываясь от полиции, Кеймерон попадает на съемочную площадку фильма о Первой мировой войне. Жестокому режиссеру Кроссу нужен человек, который заменил бы погибшего каскадера. Кеймерон получает укрытие, но он должен заменить каскадера.
Пройдя ужасы вьетнамской войны, Кеймерон в роли американского летчика, демонстрирует фантастическое мужество.


Видео: 1280x720 (16:9), 23,976 fps,MPEG4 AVC (х264), , ~1990 kbps avg, 0.09 bit/pixel
Аудио: 48 kHz,AC-3, 2 ch, ~265.00 kbps avg

Автор РИПа:
Общее
Уникальный идентификатор : 246350657540965899590379985587615853562 (0xB955692B5A5951B987DD2E3D0AF46BFA)
Полное имя : f:\Downloads\the_stunt_man_[tfile.ru].mkv
Формат : Matroska
Размер файла : 2,09 Гбайт
Продолжительность : 2 ч. 10 м.
Общий поток : 2291 Кбит/сек
Дата кодирования : UTC 2011-08-08 10:59:37
Программа кодирования : mkvmerge v4.6.0 ('Still Crazy After All These Years') сборка от Mar 10 2011 02:50:32
Библиотека кодирования : libebml v1.2.0 + libmatroska v1.1.0

Видео
Идентификатор : 1
Формат : AVC
Формат/Информация : Advanced Video Codec
Профиль формата :
Параметр CABAC формата : Да
Параметр ReFrames формата : 4 кадра
Параметры GOP формата : M=1, N=2
Режим смешивания : Header stripping
Идентификатор кодека : V_MPEG4/ISO/AVC
Продолжительность : 2 ч. 10 м.
Битрейт : 1990 Кбит/сек
Ширина : 1280 пикс.
Высота : 720 пикс.
Соотношение сторон : 16:9
Частота кадров : 23,976 кадр/сек
Цветовое пространство : YUV
Подвыборка цветности : 4:2:0
Битовая глубина : 8 бит
Тип развёртки : Прогрессивная
Бит/(Пиксели*Кадры) : 0.090
Размер потока : 1,82 Гбайт (87%)
Библиотека кодирования : x264 core 56 svn-667M
Настройки программы : cabac=1 / ref=3 / deblock=1:0:0 / analyse=0x1:0 / me=dia / subme=1 / brdo=0 / mixed_ref=1 / me_range=16 / chroma_me=1 / trellis=0 / 8x8dct=0 / cqm=0 / deadzone=21,11 / chroma_qp_offset=0 / threads=3 / nr=0 / decimate=1 / mbaff=0 / bframes=3 / b_pyramid=0 / b_adapt=1 / b_bias=0 / direct=3 / wpredb=0 / bime=0 / keyint=250 / keyint_min=25 / scenecut=40(pre) / rc=crf / crf=25.0 / rceq='blurCplx^(1-qComp)' / qcomp=0.60 / qpmin=10 / qpmax=51 / qpstep=4 / ip_ratio=1.40 / pb_ratio=1.30
Язык : English

Аудио
Идентификатор : 2
Формат : AC-3
Формат/Информация : Audio Coding 3
Расширение режима : CM (complete main)
Режим смешивания : Header stripping
Идентификатор кодека : A_AC3
Продолжительность : 2 ч. 10 м.
Вид битрейта : Постоянный
Битрейт : 256 Кбит/сек
Каналы : 2 канала
Расположение каналов : Front: L R
Частота : 48,0 КГц
Битовая глубина : 16 бит
Метод сжатия : С потерями
Размер потока : 239 Мбайт (11%)
Заголовок : DUB
Язык : Russian

Текст
Идентификатор : 3
Формат : UTF-8
Идентификатор кодека : S_TEXT/UTF8
Идентификатор кодека/Информация : UTF-8 Plain Text
Язык : Russian














Поделиться:




реклама партнёра


Вернуться к началу
 Профиль Отправить личное сообщение  
 
   Похожие торренты   Автор   Торрент   Размер 
В этой теме нет новых непрочитанных сообщений. Трюкач [Серия 1-12 из 12] (Сергей Щербин) [драма, мелодрама, 2015] SATRip

Dracon

1883 | 417

7.01 ГБ

В этой теме нет новых непрочитанных сообщений. Октагон / The Octagon [боевик, триллер, драма, мелодрама, 1980] DVDRip, Mvo

salma3

14 | 1

1.36 ГБ

В этой теме нет новых непрочитанных сообщений. Молодой мастер / Shi di chu ma [боевик, комедия, приключения, 1980] HDRip, Mvo

salma3

18 | 3

1.46 ГБ

В этой теме нет новых непрочитанных сообщений. Встречи с привидениями / Gui da gui [Ужасы, фэнтези, боевик, комедия, 1980] HDRip, Avo

salma3

0 | 1

1.46 ГБ

В этой теме нет новых непрочитанных сообщений. Драка в Бэттл Крик / Battle Creek Brawl [боевик, комедия, боевые искусства, 1980] HDRip, Mvo

salma3

18 | 1

1.46 ГБ

В этой теме нет новых непрочитанных сообщений. Внешнее сходство / The Lookalike (Ричард Грэй) [Триллер, драма, криминал, 2014] HDRip, Mvo

Dracon

1593 | 42

1.45 ГБ

В этой теме нет новых непрочитанных сообщений. Обрезание / Экстирпация / Excision (Ричард Бейтс мл.) [2012, ужасы, драма, комедия, HDRip] mvo

Nickolas3435

857 | 43

1.37 ГБ


Начать новую тему Ответить на тему  [ 1 сообщение ] 




Для Мосгорсуда, Роскомнадзора и рекламодателей:: mosgorsud-torrent[собачка]yandex.ru