Торрент файл
скачать торрент магнет ссылка Добавлен: 10 янв 2012, 20:47
Размер: 1.36 ГБ
Сидеров: 35
Личеров: 11
Автор

СообщениеДобавлено: 10 янв 2012, 20:47 

Не в сети
Супермодератор
Аватара пользователя
Дата регистрации:
11 апр 2010, 18:10
Спасибо: 5953 / 7
Сообщения: 56776
Сеть 2.0 / The Net 2.0


Перевод: Профессиональный (многоголосый, закадровый), cубтитры: отсутствуют

Формат: DVDRip, AVI, DivX, AC3

Страна: США

Режиссер: Чарльз Уинклер

Жанр: боевик, триллер, драма

Продолжительность: 01:28:28

Год выпуска: 2006

В ролях: Никки Делоач, Cengiz Bozkurt, Sebnem, Demet Akbag, Нил Хопкинс, Кортни Вай, Ertan Saban,Сельма Эргеч, Чарльз Уинклер

Описание: Сюжет ленты разворачивается вокруг девушки Хоуп Кэссиди, переехавшей в Стамбул, чтобы начать карьеру компьютерного аналитика с чистого листа. Но ее личность раскрывается, банк замораживает ее счет и аннулирует кредитные карточки.

С помощью своего друга, оставшегося в Лос-Анджелесе, она пытается убедить власти, обвиняющие ее в убийстве и хищении $14 млн., что кто-то воспользовался ее личностью.




Видео: 704x384 (1.83:1), 25 fps, DivX Codec 5.05 ~1726 kbps avg, 0.26 bit/pixel
Аудио: 48 kHz, AC3 Dolby Digital, 3/2 (L,C,R,l,r) + LFE ch, ~448.00 kbps avg

General
Complete name: E:\Загрузки\The.Net.2.avi
Format: AVI
Format/Info: Audio Video Interleave
File size: 1.36 GiB
Duration: 1h 29mn
Overall bit rate: 2 184 Kbps
Writing application: Nandub v2.01 The advanced compression technology is developed by Neiromaster
Writing library: Nandub 2.01 modified by Neiromaster

Video
ID: 0
Format: MPEG-4 Visual
Format settings, BVOP: No
Format settings, QPel: No
Format settings, GMC: No warppoints
Format settings, Matrix: Default (H.263)
Codec ID: DX50
Codec ID/Hint: DivX 5
Duration: 1h 29mn
Bit rate: 1 727 Kbps
Width: 704 pixels
Height: 384 pixels
Display aspect ratio: 16:9
Frame rate: 25.000 fps
Color space: YUV
Chroma subsampling: 4:2:0
Bit depth: 8 bits
Scan type: Progressive
Compression mode: Lossy
Bits/(Pixel*Frame): 0.255
Stream size: 1.08 GiB (79%)
Writing library: DivX 5.0.5 (UTC 2003-04-24)

Audio
ID: 1
Format: AC-3
Format/Info: Audio Coding 3
Mode extension: CM (complete main)
Codec ID: 2000
Duration: 1h 29mn
Bit rate mode: Constant
Bit rate: 448 Kbps
Channel(s): 6 channels
Channel positions: Front: L C R, Side: L R, LFE
Sampling rate: 48.0 KHz
Bit depth: 16 bits
Compression mode: Lossy
Stream size: 286 MiB (21%)
Alignment: Split accross interleaves
Interleave, duration: 40 ms (1.00 video frame)
Interleave, preload duration: 200 ms











Поделиться:




реклама партнёра


Вернуться к началу
 Профиль Отправить личное сообщение  
 
   Похожие торренты   Автор   Торрент   Размер 
В этой теме нет новых непрочитанных сообщений. Прикрытие-Один: Фактор Аида / Covert One: The Hades Factor [Боевик, триллер, драма, детектив, 2006] DVDRip, Mvo

salma3

107 | 34

2.74 ГБ

В этой теме нет новых непрочитанных сообщений. Антисоциальная сеть / Antisocial.app [триллер, 2016] WEB-DLRip, Mvo

salma3

56 | 5

1.37 ГБ

В этой теме нет новых непрочитанных сообщений. Доминион / Dominion [02x01-13 из 13] (Скотт Чарльз Стюарт) [ужасы, фантастика, фэнтези, боевик, драма, 2015] WEB-DL 720p, Mvo [LostFilm]

Dracon

195 | 378

16.21 ГБ

В этой теме нет новых непрочитанных сообщений. Доминион / Dominion [02х01-13 из 13] (Скотт Чарльз Стюарт) [ужасы, фантастика, фэнтези, боевик, драма, 2015] WEB-DL 1080p, Mvo [NewStudio]

Dracon

9 | 6

22.31 ГБ

В этой теме нет новых непрочитанных сообщений. Доминион / Dominion [02x01-13 из 13] (Скотт Чарльз Стюарт) [ужасы, фантастика, фэнтези, боевик, драма, 2015] WEB-DL 720p, Mvo [NewStudio]

Dracon

36 | 53

18.18 ГБ

В этой теме нет новых непрочитанных сообщений. Доминион / Dominion [02х01-09 из 13] (Скотт Чарльз Стюарт) [ужасы, фантастика, фэнтези, боевик, драма, 2015] WEB-DL 1080p, Mvo [LostFilm]

Dracon

0 | 8

15.9 ГБ

В этой теме нет новых непрочитанных сообщений. Второй в команде / Second in Command [Боевик, триллер, 2006] DVDRip, Mvo

salma3

25 | 4

1.37 ГБ


Начать новую тему Ответить на тему  [ 1 сообщение ] 




Для Мосгорсуда, Роскомнадзора и рекламодателей:: mosgorsud-torrent[собачка]yandex.ru