Торрент файл
скачать торрент магнет ссылка Добавлен: 10 янв 2012, 20:47
Размер: 700.05 МБ
Сидеров: 24
Личеров: 15
Автор

СообщениеДобавлено: 10 янв 2012, 20:47 

Не в сети
Супермодератор
Аватара пользователя
Дата регистрации:
11 апр 2010, 18:10
Спасибо: 5962 / 7
Сообщения: 56762
Последний страж / The Last Sentinel


Перевод: Профессиональный (многоголосый, закадровый), cубтитры: отсутствуют

Формат: DVDRip, AVI, XviD, MP3

Страна: США

Режиссер: Джесси Джонсон

Жанр: фантастика, боевик

Продолжительность: 01:34:16

Год выпуска: 2007

В ролях: Дон «Дракон» Вилсон, Кэти Сакхофф, Букем Вудбайн, Кейт Дэвид, Стивен Бауэр.

Описание: Жестокий мир будущего. Человечество погрязло в войнах и преступности. Люди, пытаясь защититься от самих себя, изобретают дронов — высокотехнологичных биороботов-полицейских. Это было роковой ошибкой человечества: искусственный разум решает, что люди — это проклятье планеты. Теперь главная задача дронов: избавить Землю от людей, попросту уничтожить их. Род человеческий на грани исчезновения.

Солдат элитного отряда «Седьмая сотня», боец по имени Таллис, берется за невыполнимое задание: произвести разведку боем, определить месторасположение командного центра дронов и стереть его с лица земли…




Видео: 592x336 (1.76:1), 25 fps, XviD build 46 ~903 kbps avg, 0.18 bit/pixel
Аудио: 48 kHz, MPEG Layer 3, 2 ch, ~128.00 kbps avg

General
Complete name: E:\Загрузки\Poslednij strazh (2007) DVDRip.avi
Format: AVI
Format/Info: Audio Video Interleave
File size: 700 MiB
Duration: 1h 34mn
Overall bit rate: 1 038 Kbps
Writing application: VirtualDubMod 1.5.4.1 (build 2178/release)
Writing library: VirtualDubMod build 2178/release

Video
ID: 0
Format: MPEG-4 Visual
Format profile: Advanced Simple@L5
Format settings, BVOP: 1
Format settings, QPel: No
Format settings, GMC: No warppoints
Format settings, Matrix: Custom
Codec ID: XVID
Codec ID/Hint: XviD
Duration: 1h 34mn
Bit rate: 903 Kbps
Width: 592 pixels
Height: 336 pixels
Display aspect ratio: 16:9
Frame rate: 25.000 fps
Color space: YUV
Chroma subsampling: 4:2:0
Bit depth: 8 bits
Scan type: Progressive
Compression mode: Lossy
Bits/(Pixel*Frame): 0.182
Stream size: 609 MiB (87%)
Writing library: XviD 1.1.2 (UTC 2006-11-01)

Audio
ID: 1
Format: MPEG Audio
Format version: Version 1
Format profile: Layer 3
Mode: Joint stereo
Mode extension: MS Stereo
Codec ID: 55
Codec ID/Hint: MP3
Duration: 1h 34mn
Bit rate mode: Constant
Bit rate: 128 Kbps
Channel(s): 2 channels
Sampling rate: 48.0 KHz
Compression mode: Lossy
Delay relative to video: 1s 968ms
Stream size: 86.3 MiB (12%)
Alignment: Split accross interleaves
Interleave, duration: 80 ms (2.00 video frames)
Interleave, preload duration: 504 ms
Writing library: LAME3.97
Encoding settings: -m j -V 4 -q 2 -lowpass 17 -b 128
Language: Russian











Поделиться:




реклама партнёра


Вернуться к началу
 Профиль Отправить личное сообщение  
 
   Похожие торренты   Автор   Торрент   Размер 
В этой теме нет новых непрочитанных сообщений. Последний кордон / The Last Border - viimeisellа rajalla [фантастика, боевик, драма, 1993] DVDRip, Dvo

salma3

13 | 3

742.97 МБ

В этой теме нет новых непрочитанных сообщений. Агенты Щ.И.Т. / Marvel's Agents of S.H.I.E.L.D. [03x01-10 из 22] (Джесси Бокко, Милан Чейлов, Роксанн Доусон) [2015, Боевик, фантастика, драма, WEB-DL 1080p | LostFilm]

Dracon

39 | 24

17.45 ГБ

В этой теме нет новых непрочитанных сообщений. Агенты Щ.И.Т. / Marvel's Agents of S.H.I.E.L.D. [03x01-08 из 22] (Джесси Бокко, Милан Чейлов, Роксанн Доусон) [2015, Боевик, фантастика, драма, WEB-DL 720p | HamsterStudio]

Dracon

9 | 7

10.86 ГБ

В этой теме нет новых непрочитанных сообщений. Агенты Щ.И.Т. / Marvel's Agents of S.H.I.E.L.D. [03x01-07 из 22] (Джесси Бокко, Милан Чейлов, Роксанн Доусон) [2015, Боевик, фантастика, драма, WEB-DL 1080p | LostFilm]

Dracon

4 | 4

12.17 ГБ

В этой теме нет новых непрочитанных сообщений. Агенты Щ.И.Т. / Marvel's Agents of S.H.I.E.L.D. [03x01-06 из 22] (Джесси Бокко, Милан Чейлов, Роксанн Доусон) [2015, Боевик, фантастика, драма, WEB-DL 720p | LostFilm]

Nickolas3435

83 | 252

8.39 ГБ

В этой теме нет новых непрочитанных сообщений. Агенты Щ.И.Т. / Marvel's Agents of S.H.I.E.L.D. [03x01-07 из 22] (Джесси Бокко, Милан Чейлов, Роксанн Доусон) [2015, Боевик, фантастика, драма, WEB-DL 720p | LostFilm]

Dracon

105 | 427

9.84 ГБ

В этой теме нет новых непрочитанных сообщений. Агенты Щ.И.Т. / Marvel's Agents of S.H.I.E.L.D. [03x01-13 из 22] (Джесси Бокко, Милан Чейлов, Роксанн Доусон) [2015, Боевик, фантастика, драма, WEB-DL 720p | LostFilm]

Dracon

34 | 189

18.46 ГБ


Начать новую тему Ответить на тему  [ 1 сообщение ] 




Для Мосгорсуда, Роскомнадзора и рекламодателей:: mosgorsud-torrent[собачка]yandex.ru