Торрент файл
скачать торрент магнет ссылка Добавлен: 10 янв 2012, 20:46
Размер: 1.46 ГБ
Сидеров: 22
Личеров: 10
Автор

СообщениеДобавлено: 10 янв 2012, 20:46 

Не в сети
Супермодератор
Аватара пользователя
Дата регистрации:
11 апр 2010, 18:10
Спасибо: 5802 / 7
Сообщения: 56779
Детонатор / The Detonator


Перевод: Профессиональный (многоголосый, закадровый), cубтитры: отсутствуют

Формат: HDTVRip, AVI, XviD, AC3

Страна: США, Румыния

Режиссер: По-Чин Леонг

Жанр: боевик, триллер

Продолжительность: 01:36:21

Год выпуска: 2006

В ролях: Уэсли Снайпс, Сильвия Коллока, Мэттью Лейтч, Уильям Хоуп, Тим Даттон, Майкл Брэндон, Уоррен Дероса, Богдан Уритеску, Винченцо Николи, Стюарт Миллиган.

Описание: Секретный агент ЦРУ, работающий под прикрытием, внедряется в крупнейшую преступную группировку, связанную с нелегальным оборотом оружия. У него завязывается роман с любовницей главаря банды. Но происходит утечка информации и вся, тщательно продуманная операция рушится. Теперь, чтобы спасти свои жизни и довести разработку до конца, им придется рассчитывать только на себя…



Видео: 720x384 (1.88:1), 23.976 fps, XviD build 47 ~1705 kbps avg, 0.26 bit/pixel
Аудио: 48 kHz, AC3 Dolby Digital, 3/2 (L,C,R,l,r) + LFE ch, ~448.00 kbps avg

Бюджет$15 000 000

СценарийМартин Вилер

Продюсер Дональд Кушнер, Пьер Спенглер, Эндрю Стивенс


Оператор Ричард Грейтрекс

Художник Сербан Порупко, Пускариу Григоре

Монтаж Патрик Додд

КомпозиторБэрри Тейлор

КинокомпанияSony Pictures

Производство:
1. Andrew Stevens Entertainment Inc.

2. Castel Film Romania

3. Donald Kushner Entertainment



General
Complete name: E:\Загрузки\Detonator.avi
Format: AVI
Format/Info: Audio Video Interleave
File size: 1.46 GiB
Duration: 1h 36mn
Overall bit rate: 2 163 Kbps
Movie name: Детонатор / The Detonator (2006)
Director: Inko
Writing application: VirtualDubMod 1.5.10.2 (build 2540/release)
Original source form/Name: HDTVRip
Copyright: RG All Films
Comment: torrents.ru

Video
ID: 0
Format: MPEG-4 Visual
Format profile: Advanced Simple@L5
Format settings, BVOP: 1
Format settings, QPel: No
Format settings, GMC: No warppoints
Format settings, Matrix: Default (MPEG)
Codec ID: XVID
Codec ID/Hint: XviD
Duration: 1h 36mn
Bit rate: 1 706 Kbps
Width: 720 pixels
Height: 384 pixels
Display aspect ratio: 1.875
Frame rate: 23.976 fps
Color space: YUV
Chroma subsampling: 4:2:0
Bit depth: 8 bits
Scan type: Progressive
Compression mode: Lossy
Bits/(Pixel*Frame): 0.257
Stream size: 1.15 GiB (79%)
Writing library: XviD 1.2.0.dev47 (UTC 2006-11-01)

Audio
ID: 1
Format: AC-3
Format/Info: Audio Coding 3
Mode extension: CM (complete main)
Codec ID: 2000
Duration: 1h 36mn
Bit rate mode: Constant
Bit rate: 448 Kbps
Channel(s): 6 channels
Channel positions: Front: L C R, Side: L R, LFE
Sampling rate: 48.0 KHz
Bit depth: 16 bits
Compression mode: Lossy
Stream size: 309 MiB (21%)
Alignment: Split accross interleaves
Interleave, duration: 42 ms (1.00 video frame)
Interleave, preload duration: 500 ms











Поделиться:




реклама партнёра


Вернуться к началу
 Профиль Отправить личное сообщение  
 
   Похожие торренты   Автор   Торрент   Размер 
В этой теме нет новых непрочитанных сообщений. Детонатор / Pressure point [Боевик, 1997] VHSRip, Avo

salma3

11 | 3

1.46 ГБ

В этой теме нет новых непрочитанных сообщений. Детонатор - Поклоніння [2012, Grindcore,Noisegrind, MP3]

PriZraK

0 | 1

27.99 МБ

В этой теме нет новых непрочитанных сообщений. Боевик Джексон / Action Jackson [боевик, триллер, комедия, криминал, 1988] BDRip 1080p, Dub+Mvo+Avo

salma3

31 | 34

10.82 ГБ

В этой теме нет новых непрочитанных сообщений. Боевик Джексон / Action Jackson [боевик, триллер, комедия, криминал, 1988] BDRip 720p, Dub+Mvo+Avo

salma3

44 | 7

9.35 ГБ

В этой теме нет новых непрочитанных сообщений. Любой ценой / A Job to Kill For [драма, триллер, 2006] HDTVRip, Dvo

salma3

128 | 51

1.45 ГБ

В этой теме нет новых непрочитанных сообщений. Переговорщики / Standoff [S01] [триллер, драма, мелодрама, криминал, 2006-2007] HDTVRip, Dub

salma3

13 | 5

7.03 ГБ

В этой теме нет новых непрочитанных сообщений. Удар по системе / Shock to the System [триллер, драма, криминал, детектив, 2006] HDTVRip, Dvo [НТВ+]

salma3

129 | 10

1.35 ГБ


Начать новую тему Ответить на тему  [ 1 сообщение ] 




Для Мосгорсуда, Роскомнадзора и рекламодателей:: mosgorsud-torrent[собачка]yandex.ru