Торрент файл
скачать торрент магнет ссылка Добавлен: 10 янв 2012, 20:44
Размер: 1.45 ГБ
Сидеров: 119
Личеров: 19
Автор

СообщениеДобавлено: 10 янв 2012, 20:44 

Не в сети
Супермодератор
Аватара пользователя
Дата регистрации:
11 апр 2010, 18:10
Спасибо: 5963 / 7
Сообщения: 56762
Миссия: невыполнима 2 / Mission: Impossible II


Перевод: Профессиональный (многоголосый, закадровый), cубтитры: отсутствуют
Формат: HDRip-AVC, MKV, H.264, AC3
Страна: США, Германия
Режиссер: Джон Ву
Жанр: боевик, триллер, приключения
Продолжительность: 02:03:34
Год выпуска: 2000

В ролях: Том Круз, Дюгрэй Скотт, Энтони Хопкинс, Тэнди Ньютон, Винг Рэймс, Ричард Роксбург, Джон Полсон, Брендан Глисон, Раде Шербеджия, Уильям Мапотер, Доминик Пурселл.

Описание: Если мир внезапно оказывается перед лицом ужасной катастрофы, есть лишь один человек, который может исправить это ужасное положение. Его имя Итан Хант, он прирожденный специалист по разрешению самых неразрешимых ситуаций.

Теперь у Итана — новый, строгий начальник, новая очаровательная возлюбленная, новый коварный противник и новое задание, которое простому смертному просто не по плечу. Но Итан Хант не был бы Итаном Хантом, если бы не смог с блеском выполнить очередную невыполнимую миссию: справиться с кровожадными террористами и спасти планету от ужасного, смертельного вируса!




Видео: 784x320 (2.450), 23.976 fps, AVC, х264, , ~ 1359 Kbps, 0.226 bit/pixel
Аудио: 48 kHz, AC3 Dolby Digital, 3/2 (L,C,R,l,r) + LFE ch, ~ 320 Kbps

Общее
Уникальный идентификатор: 170327084467761571588390193970182610474 (0x8023CDA0971E4D73BF0E951713CBDE2A)
Полное имя: D:\Мои фильмы\Mission Impossible.mkv
Формат: Matroska
Размер файла: 1,45 Гбайт
Продолжительность: 2 ч. 3 м.
Общий поток: 1681 Кбит/сек
Дата кодирования: UTC 2011-04-21 18:45:57
Программа кодирования: mkvmerge v4.6.0 ('Still Crazy After All These Years') built on Mar 10 2011 02:50:32
Библиотека кодирования: libebml v1.2.0 + libmatroska v1.1.0

Видео
Идентификатор: 1
Формат: AVC
Формат/Информация: Advanced Video Codec
Профиль формата:
Параметр CABAC формата: Да
Параметр ReFrames формата: 8 кадры
Идентификатор кодека: V_MPEG4/ISO/AVC
Продолжительность: 2 ч. 3 м.
Битрейт: 1359 Кбит/сек
Ширина: 784 пикс.
Высота: 320 пикс.
Соотношение сторон: 2,450
Частота кадров: 23,976 кадр/сек
Цветовое пространство: YUV
Подвыборка цветности: 4:2:0
Битовая глубина: 8 бит
Тип развёртки: Прогрессивная
Бит/(Пиксели*Кадры): 0.226
Размер потока: 1,15 Гбайт (79%)
Библиотека кодирования: x264 core 114 r1913 5fd3dce
Настройки программы: cabac=1 / ref=8 / deblock=1:-3:-3 / analyse=0x3:0x133 / me=umh / subme=10 / psy=1 / psy_rd=1.00:0.00 / mixed_ref=1 / me_range=32 / chroma_me=1 / trellis=2 / 8x8dct=1 / cqm=0 / deadzone=21,11 / fast_pskip=0 / chroma_qp_offset=-2 / threads=6 / sliced_threads=0 / nr=0 / decimate=1 / interlaced=0 / constrained_intra=0 / bframes=5 / b_pyramid=2 / b_adapt=2 / b_bias=0 / direct=3 / weightb=1 / open_gop=0 / weightp=2 / keyint=250 / keyint_min=23 / scenecut=40 / intra_refresh=0 / rc_lookahead=40 / rc=2pass / mbtree=1 / bitrate=1359 / ratetol=1.0 / qcomp=0.60 / qpmin=10 / qpmax=51 / qpstep=4 / cplxblur=20.0 / qblur=0.5 / ip_ratio=1.40 / aq=1:0.90
Язык: English

Аудио
Идентификатор: 2
Формат: AC-3
Формат/Информация: Audio Coding 3
Расширение режима: CM (complete main)
Идентификатор кодека: A_AC3
Продолжительность: 2 ч. 3 м.
Вид битрейта: Постоянный
Битрейт: 320 Кбит/сек
Канал(ы): 6 канала(ов)
Расположение каналов: Front: L C R, Side: L R, LFE
Частота: 48,0 КГц
Битовая глубина: 16 бит
Метод сжатия: С потерями
Размер потока: 283 Мбайт (19%)
Заголовок: Russian
Язык: Russian







Поделиться:




реклама партнёра


Вернуться к началу
 Профиль Отправить личное сообщение  
 
   Похожие торренты   Автор   Торрент   Размер 
В этой теме нет новых непрочитанных сообщений. Миссия невыполнима: Племя изгоев / Mission: Impossible - Rogue Nation (Кристофер МакКуорри) [боевик, триллер, приключения, 2015] HDRip, Dub [iTUnes]

Dracon

765 | 40

1.46 ГБ

В этой теме нет новых непрочитанных сообщений. Миссия невыполнима: Племя изгоев / Mission: Impossible - Rogue Nation (Кристофер МакКуорри) [боевик, триллер, приключения, 2015] HDRip, Dub [iTunes]

Dracon

458 | 25

2.18 ГБ

В этой теме нет новых непрочитанных сообщений. Миссия невыполнима / Mission: Impossible [S01] [боевик, триллер, драма, приключения, 1966] DVDRip, Avo [Белов]

salma3

99 | 68

11.71 ГБ

В этой теме нет новых непрочитанных сообщений. Миссия невыполнима: Племя изгоев / Mission: Impossible - Rogue Nation (Кристофер МакКуорри) [боевик, триллер, приключения, 2015] DVD5, Dub+Sub

Dracon

264 | 46

4.37 ГБ

В этой теме нет новых непрочитанных сообщений. Миссия невыполнима: Племя изгоев / Mission: Impossible - Rogue Nation (Кристофер МакКуорри) [2015, боевик, триллер, приключения, BDRip-AVC] Dub+Sub [iTunes]

Dracon

6573 | 957

2.11 ГБ

В этой теме нет новых непрочитанных сообщений. Миссия невыполнима: Племя изгоев / Mission: Impossible - Rogue Nation (Кристофер МакКуорри) [2015, Боевик, триллер, приключения , BD-Remux 1080p] [DD5.1] [Dub Rus , Eng]+[Sub Rus , Ukr , Eng]

Враг Нароода

7 | 2

23.92 ГБ

В этой теме нет новых непрочитанных сообщений. Миссия невыполнима: Племя изгоев / Mission: Impossible - Rogue Nation (Кристофер МакКуорри) [2015, боевик, триллер, приключения, BDRip 720p] Dub [iTunes]

Dracon

323 | 6

7.35 ГБ


Начать новую тему Ответить на тему  [ 1 сообщение ] 




Для Мосгорсуда, Роскомнадзора и рекламодателей:: mosgorsud-torrent[собачка]yandex.ru