Торрент файл
скачать торрент магнет ссылка Добавлен: 10 янв 2012, 20:43
Размер: 2.06 ГБ
Сидеров: 83
Личеров: 11
Автор

СообщениеДобавлено: 10 янв 2012, 20:43 

Не в сети
Супермодератор
Аватара пользователя
Дата регистрации:
11 апр 2010, 18:10
Спасибо: 5799 / 7
Сообщения: 56779
Форсаж 5 / Fast Five


Перевод: Профессиональный (полное дублирование), cубтитры: отсутствуют

Формат: DVDRip, AVI, XviD, AC3

Страна: США

Режиссер: Джастин Лин

Жанр: боевик, триллер, драма, криминал

Продолжительность: 02:05:00

Год выпуска: 2011

В ролях: Вин Дизель, Пол Уокер, Дуэйн Джонсон, Джордана Брюстер, Тайриз Гибсон, Лудакрис, Мэтт Шульце, Санг Кенг, Гал Гадот, Тего Калдерон, Дон Омар

Описание: Бывший полицейский Брайан О'Коннер вместе с бывалым лихачем Домиником Торетто совсем немного увлеклись жизнью вне закона. После того, как Брайан и Миа Торетто освободили Доминика, они не рискуют долго задерживаться на одном месте, так как являются желанной целью порядком недовольных копов.



Видео: 720x304 (2.37:1), 25 fps, XviD MPEG-4 ~1578 kbps avg, 0.29 bit/pixel

Аудио #1: Русский: 48 kHz, AC3 Dolby Digital, 3/2 (L,C,R,l,r) + LFE ch, ~384.00 kbps Профессиональный (полное дублирование)
Аудио #2:Украинский: 48 kHz, AC3 Dolby Digital, 3/2 (L,C,R,l,r) + LFE ch, ~384.00 kbps avg Профессиональный (полное дублирование)

Бюджет $125 000 000

Сборы в США $209 837 675

Сборы в мире + $396 342 815 = $606 180 490

Сборы в России $29 111 471
*На премьере фильма в Рио-де-Жанейро представители компании Universal Pictures заявили, что киностудия уже разрабатывает фильм «Форсаж 6». Режиссёр трёх последних частей, Джастин Лин, подтвердил, что фильм обязательно будет, поскольку пятый «Форсаж» получился весьма удачным и собрал неплохие кассовые сборы.

*Точной информации о том, кто вернётся в фильм, нет, однако у Вина Дизеля со студией имеется контракт на ещё один фильм серии «Форсаж». Дуэйн Джонсон также хочет вернуться в фильм в роли Хоббса. Микрофинал «Форсажа 5» заявил ещё двух героинь — выжившию после событий четвёртой части Летти (Мишель Родригес) и спецагента Монику Фуэнтес (Ева Мендес) из «Двойного Форсажа».

*Крис Морган получил заказ на сочинение сценария для шестой серии.

*Слоган фильма: «Всё решает скорость, всё решает команда».

*Другие названия фильма на английском языке: Fast & Furious 5 и Fast & Furious 5: Rio Heist.

*В конце фильма в мастерской Роман Пирс приезжает на Koenigsegg CCX
General
Complete name: E:\Загрузки\Fast.Five.2011.DVDRip.Rus.Ukr.0dayTeam.avi
Format: AVI
Format/Info: Audio Video Interleave
Format profile: OpenDML
File size: 2.06 GiB
Duration: 2h 5mn
Overall bit rate: 2 354 Kbps
Writing application: VirtualDubMod 1.5.10.2 (build 2540/release)
Writing library: VirtualDubMod build 2540/release

Video
ID: 0
Format: MPEG-4 Visual
Format profile: Advanced Simple@L4
Format settings, BVOP: 2
Format settings, QPel: No
Format settings, GMC: No warppoints
Format settings, Matrix: Default (MPEG)
Muxing mode: Packed bitstream
Codec ID: XVID
Codec ID/Hint: XviD
Duration: 2h 5mn
Bit rate: 1 567 Kbps
Width: 720 pixels
Height: 304 pixels
Display aspect ratio: 2.35:1
Frame rate: 25.000 fps
Color space: YUV
Chroma subsampling: 4:2:0
Bit depth: 8 bits
Scan type: Progressive
Compression mode: Lossy
Bits/(Pixel*Frame): 0.286
Stream size: 1.37 GiB (67%)
Writing library: XviD 63

Audio #1
ID: 1
Format: AC-3
Format/Info: Audio Coding 3
Mode extension: CM (complete main)
Codec ID: 2000
Duration: 2h 5mn
Bit rate mode: Constant
Bit rate: 384 Kbps
Channel(s): 6 channels
Channel positions: Front: L C R, Side: L R, LFE
Sampling rate: 48.0 KHz
Bit depth: 16 bits
Compression mode: Lossy
Stream size: 343 MiB (16%)
Alignment: Split accross interleaves
Interleave, duration: 40 ms (1.00 video frame)
Interleave, preload duration: 500 ms

Audio #2
ID: 2
Format: AC-3
Format/Info: Audio Coding 3
Mode extension: CM (complete main)
Codec ID: 2000
Duration: 2h 5mn
Bit rate mode: Constant
Bit rate: 384 Kbps
Channel(s): 6 channels
Channel positions: Front: L C R, Side: L R, LFE
Sampling rate: 48.0 KHz
Bit depth: 16 bits
Compression mode: Lossy
Stream size: 343 MiB (16%)
Alignment: Split accross interleaves
Interleave, duration: 40 ms (1.00 video frame)
Interleave, preload duration: 500 ms



















Поделиться:




реклама партнёра


Вернуться к началу
 Профиль Отправить личное сообщение  
 
   Похожие торренты   Автор   Торрент   Размер 
В этой теме нет новых непрочитанных сообщений. Скорострельный / Fast Gun [Боевик, триллер, криминал, 1988] VHSRip, Avo

salma3

1 | 0

1.09 ГБ

В этой теме нет новых непрочитанных сообщений. Форсаж 7 / Furious 7 (Джеймс Ван) [боевик, триллер, криминал, 2015] HDTVRip, avo

Dracon

10 | 3

2.15 ГБ

В этой теме нет новых непрочитанных сообщений. Форсаж 7 / Furious 7 [боевик, триллер, криминал, 2015] HD 1080p, Dub [Трейлер]

salma3

2323 | 29

152.66 МБ

В этой теме нет новых непрочитанных сообщений. Форсаж 7 / Furious 7 (Джеймс Ван) [боевик, триллер, криминал, 2015] WEB-DLRip, dub [ iTunes]

slawa4155

635 | 14

1.37 ГБ

В этой теме нет новых непрочитанных сообщений. Форсаж 7 / Furious 7 (Джеймс Ван) [боевик, триллер, криминал, 2015] BDRip, Dub [iTunes]

Dracon

269 | 14

1.38 ГБ

В этой теме нет новых непрочитанных сообщений. Форсаж 7 / Furious 7 (Джеймс Ван) [боевик, триллер, криминал, 2015] WEB-DL 1080p, Dub [iTunes]

Dracon

2 | 0

4.7 ГБ

В этой теме нет новых непрочитанных сообщений. Форсаж 7 / Furious 7 (Джеймс Ван) [боевик, триллер, криминал, 2015] BDRip, Dub [iTunes]

Dracon

18 | 1

2.06 ГБ


Начать новую тему Ответить на тему  [ 1 сообщение ] 




Для Мосгорсуда, Роскомнадзора и рекламодателей:: mosgorsud-torrent[собачка]yandex.ru