Торрент файл
скачать торрент магнет ссылка Добавлен: 10 янв 2012, 20:41
Размер: 1.45 ГБ
Сидеров: 1
Личеров: 8
Автор

СообщениеДобавлено: 10 янв 2012, 20:41 

Не в сети
Супермодератор
Аватара пользователя
Дата регистрации:
11 апр 2010, 18:10
Спасибо: 5801 / 7
Сообщения: 56779
Вторжение: Битва за рай / Tomorrow, When the War Began



«Где Были Вы Когда Всё Изменяли?»

Перевод: Профессиональный (полное дублирование) [лицензия], cубтитры: отсутствуют
Формат: HDRip-AVC, MKV, H.264, AC3

Страна: США, Австралия
Режиссер: Стюарт Битти
Жанр: боевик, драма, мелодрама, приключения, военный

Продолжительность: 01:43:39
Год выпуска: 2010

В ролях: Кейтлин Стэйси, Рейчел Херд-Вуд, Линкольн Льюис, Дениз Акдениз, Фиби Тонкин, Крис Пэнг, Эшли Каммингс, Эндрю Райан, Колин Фрилз, Пек Анг.

Описание: Группа подростков возвращаются домой после похода, чтобы обнаружить что их дома захвачены врагом, а все остальные люди взяты в заложники или убиты...



Видео: 1024x422 (2,40:1), 24,000 fps, AVC, х264, , ~ 1624 Kbps, 0.159 bit/pixel
Аудио: 48 kHz, AC3 Dolby Digital, 3/2 (L,C,R,l,r) + LFE ch, ~ 384 Kbps

Общее
Уникальный идентификатор: 231569263775416411956407605731115275266 (0xAE369E30B11A96F784FDE5ABF7DA1402)
Полное имя: C:\Tomorrow, When the War Began.mkv
Формат: Matroska
Размер файла: 1,45 Гбайт
Продолжительность: 1 ч. 43 м.
Общий поток: 2009 Кбит/сек
Дата кодирования: UTC 2011-08-23 13:02:36
Программа кодирования: mkvmerge v4.9.1 ('Ich will') built on Jul 11 2011 23:53:15
Библиотека кодирования: libebml v1.2.1 + libmatroska v1.1.1

Видео
Идентификатор: 1
Формат: AVC
Формат/Информация: Advanced Video Codec
Профиль формата:
Параметр CABAC формата: Да
Параметр ReFrames формата: 4 кадры
Параметры GOP формата: M=4, N=30
Идентификатор кодека: V_MPEG4/ISO/AVC
Продолжительность: 1 ч. 43 м.
Битрейт: 1624 Кбит/сек
Ширина: 1024 пикс.
Высота: 422 пикс.
Соотношение сторон: 2,40:1
Соотношение сторон в оригинале: 2,40:1
Частота кадров: 24,000 кадр/сек
Цветовое пространство: YUV
Подвыборка цветности: 4:2:0
Битовая глубина: 8 бит
Тип развёртки: Прогрессивная
Бит/(Пиксели*Кадры): 0.159
Размер потока: 1,15 Гбайт (79%)
Библиотека кодирования: x264 core 116 r2057 0ba8a9c
Настройки программы: cabac=1 / ref=3 / deblock=1:0:0 / analyse=0x3:0x113 / me=hex / subme=7 / psy=1 / psy_rd=1.00:0.00 / mixed_ref=1 / me_range=16 / chroma_me=1 / trellis=1 / 8x8dct=1 / cqm=0 / deadzone=21,11 / fast_pskip=1 / chroma_qp_offset=-2 / threads=12 / sliced_threads=0 / nr=0 / decimate=1 / interlaced=0 / bluray_compat=0 / constrained_intra=0 / bframes=3 / b_pyramid=2 / b_adapt=1 / b_bias=0 / direct=1 / weightb=1 / open_gop=0 / weightp=2 / keyint=250 / keyint_min=24 / scenecut=40 / intra_refresh=0 / rc_lookahead=40 / rc=2pass / mbtree=1 / bitrate=1624 / ratetol=1.0 / qcomp=0.60 / qpmin=0 / qpmax=69 / qpstep=4 / cplxblur=20.0 / qblur=0.5 / ip_ratio=1.40 / aq=1:1.00

Аудио
Идентификатор: 2
Формат: AC-3
Формат/Информация: Audio Coding 3
Расширение режима: CM (complete main)
Идентификатор кодека: A_AC3
Продолжительность: 1 ч. 43 м.
Вид битрейта: Постоянный
Битрейт: 384 Кбит/сек
Канал(ы): 6 канала(ов)
Расположение каналов: Front: L C R, Side: L R, LFE
Частота: 48,0 КГц
Битовая глубина: 16 бит
Метод сжатия: С потерями
Размер потока: 285 Мбайт (19%)
Бюджет: AUD 27 000 000
Сборы в мире: $15 339 836
Сборы в России: $1 002 119







Поделиться:




реклама партнёра


Вернуться к началу
 Профиль Отправить личное сообщение  
 
   Похожие торренты   Автор   Торрент   Размер 
В этой теме нет новых непрочитанных сообщений. Последняя битва / Ardennes Fury [военный, драма, боевик, 2014] HDRip, Avo

salma3

1072 | 48

1.37 ГБ

В этой теме нет новых непрочитанных сообщений. Адмирал: Битва за Мён Рян / The Admiral: Roaring Currents (Ким Хан Мин) [приключения, военный, биография, 2014] HDRip, avo

Марик

12 | 6

1.37 ГБ

В этой теме нет новых непрочитанных сообщений. Инопланетное вторжение: Битва за Лос-Анджелес / Battle Los Angeles [Фантастика, Боевик, 2011] BDRip, Avo [Гаврилов]

salma3

0 | 5

1.46 ГБ

В этой теме нет новых непрочитанных сообщений. Битва Титанов / Clash of the Titans [фэнтези, боевик, приключения, 2010] HDRip, Dub [iPad]

salma3

37 | 2

1.42 ГБ

В этой теме нет новых непрочитанных сообщений. Взлом и проникновение / Вторжение / Breaking and Entering [драма, мелодрама, 2006] HDRip, Dvo

salma3

31 | 2

1.46 ГБ

В этой теме нет новых непрочитанных сообщений. Битва за Севастополь (Сергей Мокрицкий) [Военный, ВОВ, драма, реальные события, 2015] HDRip [лицензия]

Dracon

30 | 0

1.37 ГБ

В этой теме нет новых непрочитанных сообщений. Без вести пропавшие / Missing in Action [боевик, триллер, драма, приключения, военный, 1984] BDRip 720p, Mvo+Avo+Sub

salma3

10 | 5

6.18 ГБ


Начать новую тему Ответить на тему  [ 1 сообщение ] 




Для Мосгорсуда, Роскомнадзора и рекламодателей:: mosgorsud-torrent[собачка]yandex.ru