Торрент файл
скачать торрент магнет ссылка Добавлен: 10 янв 2012, 20:37
Размер: 2.1 ГБ
Сидеров: 106
Личеров: 14
Автор

СообщениеДобавлено: 10 янв 2012, 20:37 

Не в сети
Супермодератор
Аватара пользователя
Дата регистрации:
11 апр 2010, 18:10
Спасибо: 5799 / 7
Сообщения: 56779
Три икса / xxx




Перевод: Профессиональный (полное дублирование),субтитры: отсутствуют
Формат: HDRip-AVC, MKV, H.264, AC3
Страна: США
Жанр: боевик, криминал, приключения
Продолжительность: 02:40:00
Режиссер: Роб Коэн / Rob Cohen
Год выпуска: 2002

В ролях: Вин Дизель, Азия Ардженто, Мартон Чокаш, Сэмюэл Л. Джексон, Майкл Руф, Том Эверетт, Дэнни Трехо, Томас Йен Гриффит, Ив, Лейла Арчери, Уильям Хоуп, Тед Мэйнард

Описание:Ксандер Кэйдж — спортсмен-экстремал. Этот человек не только выполняет уникальные смертельные трюки, но еще и записывает их на видео, размещая записи на одном из подпольных сайтов. Этот жестокий парень может сделать, то, что не в силах выполнить другие люди. Именно поэтому он привлекает к себе внимание одного из агентов Управления национальной безопасности.

Агент Гиббонс вербует Кэйджа. Оснащенный самой современной шпионской техникой и оружием, Кэйдж должен просочится в русские криминальные круги, находящиеся в Праге. Ничто не может помешать этому шпиону нового поколения ХХХ выполнить свою миссию, и никто не способен отвлечь его от задания. Никто, кроме таинственной девушки Елены…..


________

Видео: 1248 x 520 (2:40:1), 23,976 кадр/сек, AVC (х264), , ~2040Kbps, 0.131 bit/pixel
Аудио: 48 kHz, AC3 Dolby Digital, 3/2 (L,C,R,l,r) + LFE ch, ~448 kbps


Автор РИПа:ddimmon22
Общее
Уникальный идентификатор: 221033280806231352686901841016387569138 (0xA649761FB13FD3389D24709BB2A085F2)
Полное имя: K:\РИПЫ\xxx_[tfile.ru].mkv
Формат: Matroska
Версия формата: Version 2
Размер файла: 2,10 Гбайт
Продолжительность: 2 ч. 4 м.
Общий поток: 2425 Кбит/сек
Дата кодирования: UTC 2011-09-14 16:17:52
Программа кодирования: mkvmerge v4.9.1 ('Ich will') сборка от Aug 10 2011 09:31:20
Библиотека кодирования: libebml v1.2.1 + libmatroska v1.2.0

Видео
Идентификатор: 1
Формат: AVC
Формат/Информация: Advanced Video Codec
Профиль формата:
Параметр CABAC формата: Да
Параметр ReFrames формата: 8 кадров
Идентификатор кодека: V_MPEG4/ISO/AVC
Продолжительность: 2 ч. 4 м.
Битрейт: 2040 Кбит/сек
Ширина: 1248 пикс.
Высота: 520 пикс.
Соотношение сторон: 2,40:1
Частота кадров: 23,976 кадр/сек
Цветовое пространство: YUV
Подвыборка цветности: 4:2:0
Битовая глубина: 8 бит
Тип развёртки: Прогрессивная
Бит/(Пиксели*Кадры): 0.131
Размер потока: 1,73 Гбайт (82%)
Библиотека кодирования: x264 core 116 r2074 2641b9e
Настройки программы: cabac=1 / ref=8 / deblock=1:-1:-1 / analyse=0x3:0x133 / me=umh / subme=7 / psy=1 / psy_rd=1.00:0.10 / mixed_ref=1 / me_range=16 / chroma_me=1 / trellis=2 / 8x8dct=1 / cqm=0 / deadzone=21,11 / fast_pskip=0 / chroma_qp_offset=-3 / threads=6 / sliced_threads=0 / nr=0 / decimate=1 / interlaced=0 / bluray_compat=0 / constrained_intra=0 / bframes=3 / b_pyramid=2 / b_adapt=2 / b_bias=0 / direct=3 / weightb=1 / open_gop=0 / weightp=2 / keyint=250 / keyint_min=23 / scenecut=40 / intra_refresh=0 / rc_lookahead=50 / rc=2pass / mbtree=1 / bitrate=2040 / ratetol=1.0 / qcomp=0.60 / qpmin=0 / qpmax=69 / qpstep=4 / cplxblur=20.0 / qblur=0.5 / ip_ratio=1.40 / aq=1:1.00

Аудио
Идентификатор: 2
Формат: AC-3
Формат/Информация: Audio Coding 3
Расширение режима: CM (complete main)
Идентификатор кодека: A_AC3
Продолжительность: 2 ч. 4 м.
Вид битрейта: Постоянный
Битрейт: 384 Кбит/сек
Каналы: 6 каналов
Расположение каналов: Front: L C R, Side: L R, LFE
Частота: 48,0 КГц
Битовая глубина: 16 бит
Метод сжатия: С потерями
Размер потока: 341 Мбайт (16%)












Поделиться:




реклама партнёра


Вернуться к началу
 Профиль Отправить личное сообщение  
 
   Похожие торренты   Автор   Торрент   Размер 
В этой теме нет новых непрочитанных сообщений. Коэн и Тейт / Cohen and Tate [Триллер, криминал, 1989] DVDRip, Mvo+Avo

salma3

25 | 3

1.47 ГБ

В этой теме нет новых непрочитанных сообщений. Коэн и Тейт / Cohen and Tate [триллер, криминал, 1988] BDRip 720p, Mvo+Avo

salma3

42 | 16

6.47 ГБ

В этой теме нет новых непрочитанных сообщений. Коэн и Тейт / Cohen and Tate [Триллер, криминал, 1988] BDRemux 1080p, Mvo+Avo

salma3

11 | 5

24.21 ГБ

В этой теме нет новых непрочитанных сообщений. Коэн и Тейт / Cohen and Tate [триллер, 1989] DVD5, Mvo+Avo

salma3

2 | 2

4.32 ГБ

В этой теме нет новых непрочитанных сообщений. Железная хватка / True Grit (Итэн Коэн, Джоэл Коэн) [2010, Приключения, драма, вестерн, BDRip | Лицензия] Dub

Nickolas3435

151 | 7

2.18 ГБ

В этой теме нет новых непрочитанных сообщений. Шоу начинается / Showtime [боевик, комедия, криминал, 2002] HDRip-AVC, Dub

salma3

53 | 2

1.24 ГБ

В этой теме нет новых непрочитанных сообщений. Дави на газ! / Gamle mænd i nye biler [боевик, комедия, криминал, 2002] HDRip, Dvo

salma3

36 | 4

1.36 ГБ


Начать новую тему Ответить на тему  [ 1 сообщение ] 




Для Мосгорсуда, Роскомнадзора и рекламодателей:: mosgorsud-torrent[собачка]yandex.ru