Торрент файл
скачать торрент магнет ссылка Добавлен: 10 янв 2012, 20:35
Размер: 1.45 ГБ
Сидеров: 85
Личеров: 9
Автор

СообщениеДобавлено: 10 янв 2012, 20:35 

Не в сети
Супермодератор
Аватара пользователя
Дата регистрации:
11 апр 2010, 18:10
Спасибо: 5801 / 7
Сообщения: 56779
Три икса 2: Новый уровень / xXx: State of the Union




Перевод: Профессиональный (полное дублирование),субтитры: отсутствуют
Формат: HDRip-AVC, MKV, H.264, AC3
Страна: США
Жанр: боевик, триллер, криминал, приключения
Продолжительность: 01:40:00
Режиссер: Ли Тамахори / Lee Tamahori
Год выпуска: 2005

В ролях: Уиллем Дефо, Сэмюэл Л. Джексон, Айс Кьюб, Скотт Спидман, Иксзибит, Питер Штраусс, Майкл Руф, Санни Мабри, Нона Гей, Джон Дж. Коннолли

Описание:Америка снова в опасности, и на сей раз беда пришла откуда не ждали: удар по демократии был нанесен изнутри! Группа высокопоставленных заговорщиков в белом доме поднимает мятеж с целью захвата власти. Спецслужбы бессильны — бунтовщики разгромили Агентство Национальной Безопасности (АНБ).

Страна на грани хаоса и террора, но у чудом выжившего офицера АНБ Огастеса Гиббонса остается последний козырь, способный спасти положение. Это Дариус Стоун, крутой и хладнокровный суперагент XXI века, отобранный по сверхсекретной программе «Три Икса». Оставляя после себя смерть и разрушения, этот человек-армия вступает в битву, которая решит судьбу Америки и всего мира…


________

Видео: 960x 408 (2:35:1), 23,976 кадр/сек, AVC (х264), , ~ 1676Kbps, 0.178 bit/pixel
Аудио: 48 kHz, AC3 Dolby Digital, 3/2 (L,C,R,l,r) + LFE ch, ~384 kbps


Автор РИПа:ddimmon22
Общее
Уникальный идентификатор: 198277502277673398971924392365290496628 (0x952ADB9EE85A38DF95F7CF2834452274)
Полное имя: K:\РИПЫ\xxx_state_of_the_union_[tfile.ru].mkv
Формат: Matroska
Версия формата: Version 2
Размер файла: 1,45 Гбайт
Продолжительность: 1 ч. 40 м.
Общий поток: 2061 Кбит/сек
Дата кодирования: UTC 2011-09-18 14:10:53
Программа кодирования: mkvmerge v4.9.1 ('Ich will') сборка от Aug 10 2011 09:31:20
Библиотека кодирования: libebml v1.2.1 + libmatroska v1.2.0

Видео
Идентификатор: 1
Формат: AVC
Формат/Информация: Advanced Video Codec
Профиль формата:
Параметр CABAC формата: Да
Параметр ReFrames формата: 8 кадров
Идентификатор кодека: V_MPEG4/ISO/AVC
Продолжительность: 1 ч. 40 м.
Битрейт: 1676 Кбит/сек
Ширина: 960 пикс.
Высота: 408 пикс.
Соотношение сторон: 2,35:1
Частота кадров: 23,976 кадр/сек
Цветовое пространство: YUV
Подвыборка цветности: 4:2:0
Битовая глубина: 8 бит
Тип развёртки: Прогрессивная
Бит/(Пиксели*Кадры): 0.178
Размер потока: 1,15 Гбайт (79%)
Библиотека кодирования: x264 core 116 r2074 2641b9e
Настройки программы: cabac=1 / ref=8 / deblock=1:-1:-1 / analyse=0x3:0x133 / me=umh / subme=7 / psy=1 / psy_rd=1.00:0.10 / mixed_ref=1 / me_range=16 / chroma_me=1 / trellis=2 / 8x8dct=1 / cqm=0 / deadzone=21,11 / fast_pskip=0 / chroma_qp_offset=-3 / threads=6 / sliced_threads=0 / nr=0 / decimate=1 / interlaced=0 / bluray_compat=0 / constrained_intra=0 / bframes=3 / b_pyramid=2 / b_adapt=2 / b_bias=0 / direct=3 / weightb=1 / open_gop=0 / weightp=2 / keyint=250 / keyint_min=23 / scenecut=40 / intra_refresh=0 / rc_lookahead=50 / rc=2pass / mbtree=1 / bitrate=1676 / ratetol=1.0 / qcomp=0.60 / qpmin=0 / qpmax=69 / qpstep=4 / cplxblur=20.0 / qblur=0.5 / ip_ratio=1.40 / aq=1:1.00

Аудио
Идентификатор: 2
Формат: AC-3
Формат/Информация: Audio Coding 3
Расширение режима: CM (complete main)
Идентификатор кодека: A_AC3
Продолжительность: 1 ч. 40 м.
Вид битрейта: Постоянный
Битрейт: 384 Кбит/сек
Каналы: 6 каналов
Расположение каналов: Front: L C R, Side: L R, LFE
Частота: 48,0 КГц
Битовая глубина: 16 бит
Метод сжатия: С потерями
Размер потока: 277 Мбайт (19%)













Поделиться:




реклама партнёра


Вернуться к началу
 Профиль Отправить личное сообщение  
 
   Похожие торренты   Автор   Торрент   Размер 
В этой теме нет новых непрочитанных сообщений. Скала Малхолланд / Mulholland Falls (Ли Тамахори) [1995, триллер, драма, криминал, детектив, HDRip] mvo

Nickolas3435

49 | 5

1.45 ГБ

В этой теме нет новых непрочитанных сообщений. Враг государства / Enemy of the State [боевик, триллер, криминал, детектив, 1998] BDRip 720p, Dub+3Avo+Mvo+Sub

salma3

71 | 7

10.93 ГБ

В этой теме нет новых непрочитанных сообщений. Ничья земля / Wu ren qu [триллер, криминал, боевик, приключения, драма, вестерн, 2013] HDRip, Dvo+Sub

salma3

38 | 2

1.46 ГБ

В этой теме нет новых непрочитанных сообщений. Добро пожаловать в капкан / Welcome to the Punch [Боевик, триллер, криминал, приключения, 2013] HDRip, dub [Чистый звук]

Dracon

979 | 13

1.36 ГБ

В этой теме нет новых непрочитанных сообщений. Наёмник: Отпущение грехов / Absolution (Киони Ваксман) [Боевик, триллер, криминал, приключения, 2015] HDRip, avo

Dracon

6 | 0

1.37 ГБ

В этой теме нет новых непрочитанных сообщений. Отряд самоубийц / Suicide Squad ( Фантастика, боевик, триллер, комедия, криминал, приключения, 2016) HDRip от MegaPeer | Расширенная версия | A

marya111

99 | 29

796.32 МБ

В этой теме нет новых непрочитанных сообщений. Банти и Бабли / Bunty aur Babli [комедия, криминал, приключения, 2005] HDRip, Mvo

salma3

3 | 4

2.05 ГБ


Начать новую тему Ответить на тему  [ 1 сообщение ] 




Для Мосгорсуда, Роскомнадзора и рекламодателей:: mosgorsud-torrent[собачка]yandex.ru