Торрент файл
скачать торрент магнет ссылка Добавлен: 10 янв 2012, 20:32
Размер: 2.1 ГБ
Сидеров: 4
Личеров: 8
Автор

СообщениеДобавлено: 10 янв 2012, 20:32 

Не в сети
Супермодератор
Аватара пользователя
Дата регистрации:
11 апр 2010, 18:10
Спасибо: 5801 / 7
Сообщения: 56779
Ангелы Чарли / Charlie's Angels




Перевод: Профессиональный (полное дублирование),субтитры: отсутствуют
Формат: HDRip-AVC, MKV, H.264, AC3
Страна: США, Германия
Жанр: боевик, триллер, комедия, криминал, приключения
Продолжительность: 01:38:00
Режиссер: МакДжи / McG
Год выпуска: 2000

В ролях: Кэмерон Диаз, Дрю Бэрримор, Люси Лью, Билл Мюррей, Сэм Рокуэлл, Келли Линч, Тим Карри, Криспин Гловер, Мэтт ЛеБлан, LL Кул Джей

Описание:Ангелы Чарли, суперсекретное элитное спецподразделение, которому доверяют только невыполнимые задания. С помощью новейших технологий, современного оружия, боевых искусств и убийственного женского очарования Ангелы Чарли творят чудеса. Но настоящим испытанием станет лишь это последнее задание…

________
Видео: 1248x 520 (2:40:1),23,976 кадр/сек, AVC (х264),High@L4.0, ~2674Kbps, 0.172 bit/pixel
Аудио: 48 kHz, AC3 Dolby Digital, 3/2 (L,C,R,l,r) + LFE ch, ~384 kbps


Автор РИПа:ddimmon22
Общее
Уникальный идентификатор: 229829191843500722805179824592005633870 (0xACE77E052E9A3D5CAA6E9BA4E914174E)
Полное имя: K:\РИПЫ\charlie's_angels_[tfile.ru].mkv
Формат: Matroska
Версия формата: Version 2
Размер файла: 2,10 Гбайт
Продолжительность: 1 ч. 38 м.
Общий поток: 3057 Кбит/сек
Дата кодирования: UTC 2011-09-29 02:04:49
Программа кодирования: mkvmerge v4.9.1 ('Ich will') сборка от Aug 10 2011 09:31:20
Библиотека кодирования: libebml v1.2.1 + libmatroska v1.2.0

Видео
Идентификатор: 1
Формат: AVC
Формат/Информация: Advanced Video Codec
Профиль формата:
Параметр CABAC формата: Да
Параметр ReFrames формата: 8 кадров
Идентификатор кодека: V_MPEG4/ISO/AVC
Продолжительность: 1 ч. 38 м.
Битрейт: 2674 Кбит/сек
Ширина: 1248 пикс.
Высота: 520 пикс.
Соотношение сторон: 2,40:1
Частота кадров: 23,976 кадр/сек
Цветовое пространство: YUV
Подвыборка цветности: 4:2:0
Битовая глубина: 8 бит
Тип развёртки: Прогрессивная
Бит/(Пиксели*Кадры): 0.172
Размер потока: 1,80 Гбайт (85%)
Библиотека кодирования: x264 core 116 r2074 2641b9e
Настройки программы: cabac=1 / ref=8 / deblock=1:-1:-1 / analyse=0x3:0x133 / me=umh / subme=7 / psy=1 / psy_rd=1.00:0.10 / mixed_ref=1 / me_range=16 / chroma_me=1 / trellis=2 / 8x8dct=1 / cqm=0 / deadzone=21,11 / fast_pskip=0 / chroma_qp_offset=-3 / threads=6 / sliced_threads=0 / nr=0 / decimate=1 / interlaced=0 / bluray_compat=0 / constrained_intra=0 / bframes=3 / b_pyramid=2 / b_adapt=2 / b_bias=0 / direct=3 / weightb=1 / open_gop=0 / weightp=2 / keyint=250 / keyint_min=23 / scenecut=40 / intra_refresh=0 / rc_lookahead=50 / rc=2pass / mbtree=1 / bitrate=2674 / ratetol=1.0 / qcomp=0.60 / qpmin=0 / qpmax=69 / qpstep=4 / cplxblur=20.0 / qblur=0.5 / ip_ratio=1.40 / aq=1:1.00

Аудио
Идентификатор: 2
Формат: AC-3
Формат/Информация: Audio Coding 3
Расширение режима: CM (complete main)
Идентификатор кодека: A_AC3
Продолжительность: 1 ч. 38 м.
Вид битрейта: Постоянный
Битрейт: 384 Кбит/сек
Каналы: 6 каналов
Расположение каналов: Front: L C R, Side: L R, LFE
Частота: 48,0 КГц
Битовая глубина: 16 бит
Метод сжатия: С потерями
Размер потока: 270 Мбайт (13%)













Поделиться:




реклама партнёра


Вернуться к началу
 Профиль Отправить личное сообщение  
 
   Похожие торренты   Автор   Торрент   Размер 
В этой теме нет новых непрочитанных сообщений. Ангелы Чарли / Charlie's Angels [боевик, комедия, приключения, криминал, 2000] Blu-Ray, Dub+Mvo+Avo+Sub

salma3

1 | 4

29.82 ГБ

В этой теме нет новых непрочитанных сообщений. Чарли / Charlie [Драма, триллер, 2015] HDRip, Mvo [SDI Media]

salma3

12 | 1

1.45 ГБ

В этой теме нет новых непрочитанных сообщений. Чарли Валентин / Charlie Valentine [Триллер, драма, криминал, 2009] BDRip 720p, Dvo

salma3

50 | 15

4.49 ГБ

В этой теме нет новых непрочитанных сообщений. Мы не ангелы / We're No Angels [комедия, криминал, 1989] WEB-DL 720p, Mvo+Avo+Sub

salma3

78 | 6

3.53 ГБ

В этой теме нет новых непрочитанных сообщений. Мятежник / The Rebel / Dong Mau Anh Hung (Чарли Нгуен / Charlie Nguyen) [2007г., Вьетнам, боевик, драма, мелодрама, HDRip] DVO + 2x VO

Alfredovich

5 | 3

2.52 ГБ

В этой теме нет новых непрочитанных сообщений. Когда поют ангелы / Angels Sing [Драма, Комедия, Семейный, 2013] HDRip, Mvo

Dracon

140 | 18

1.46 ГБ

В этой теме нет новых непрочитанных сообщений. Когда поют ангелы / Angels Sing [Драма, Комедия, Семейный, 2013] HDRip, mvo

Ανδρέας

23 | 2

1.37 ГБ


Начать новую тему Ответить на тему  [ 1 сообщение ] 




Для Мосгорсуда, Роскомнадзора и рекламодателей:: mosgorsud-torrent[собачка]yandex.ru