Торрент файл
скачать торрент магнет ссылка Добавлен: 10 янв 2012, 20:32
Размер: 1.45 ГБ
Сидеров: 20
Личеров: 6
Автор

СообщениеДобавлено: 10 янв 2012, 20:32 

Не в сети
Супермодератор
Аватара пользователя
Дата регистрации:
11 апр 2010, 18:10
Спасибо: 5799 / 7
Сообщения: 56779
Рыцари неба / Sky Fighters




Перевод: Профессиональный (многоголосый, закадровый),субтитры: отсутствуют
Формат: DVDRip-AVC, MKV, H.264, AC3
Страна: Франция
Жанр: боевик, приключения
Продолжительность: 01:36:00
Режиссер: Жерар Пирес / Gerard Pires
Год выпуска: 2005

В ролях: Бенуа Мажимель, Кловис Корнийяк, Жеральдин Пайя, Элис Тальони, Филипп Торретон, Рей Рейс, Питер Хадсон, Жан-Батист Пюэк, Кристоф Реймонд, Фиона Курзон

Описание:В разгар престижного авиасалона террористы угоняют суперсовременный истребитель. Капитанов Маршелли и Валуа отправляют патрулировать Северное море, где угнанный самолет исчез с экранов радаров…

________

Видео: 1008x 432 (2:35:1),25,000 кадр/сек, AVC (х264), , ~ 1771 Kbps, 0.163 bit/pixel
Аудио: 48 kHz, AC3 Dolby Digital, 3/2 (L,C,R,l,r) + LFE ch, ~384 kbps


Автор РИПа:ddimmon22
Общее
Уникальный идентификатор: 221403309126102997854964568748224261998 (0xA690B9EDB2C5385EBC48A70C8211AF6E)
Полное имя: K:\РИПЫ\sky_fighters_[tfile.ru].mkv
Формат: Matroska
Версия формата: Version 2
Размер файла: 1,45 Гбайт
Продолжительность: 1 ч. 36 м.
Общий поток: 2157 Кбит/сек
Дата кодирования: UTC 2011-09-30 20:36:04
Программа кодирования: mkvmerge v4.9.1 ('Ich will') сборка от Aug 10 2011 09:31:20
Библиотека кодирования: libebml v1.2.1 + libmatroska v1.2.0

Видео
Идентификатор: 1
Формат: AVC
Формат/Информация: Advanced Video Codec
Профиль формата:
Параметр CABAC формата: Да
Параметр ReFrames формата: 8 кадров
Идентификатор кодека: V_MPEG4/ISO/AVC
Продолжительность: 1 ч. 36 м.
Битрейт: 1771 Кбит/сек
Ширина: 1008 пикс.
Высота: 432 пикс.
Соотношение сторон: 2,35:1
Частота кадров: 25,000 кадр/сек
Цветовое пространство: YUV
Подвыборка цветности: 4:2:0
Битовая глубина: 8 бит
Тип развёртки: Прогрессивная
Бит/(Пиксели*Кадры): 0.163
Размер потока: 1,17 Гбайт (80%)
Библиотека кодирования: x264 core 116 r2074 2641b9e
Настройки программы: cabac=1 / ref=8 / deblock=1:-1:-1 / analyse=0x3:0x133 / me=umh / subme=7 / psy=1 / psy_rd=1.00:0.10 / mixed_ref=1 / me_range=16 / chroma_me=1 / trellis=2 / 8x8dct=1 / cqm=0 / deadzone=21,11 / fast_pskip=0 / chroma_qp_offset=-3 / threads=6 / sliced_threads=0 / nr=0 / decimate=1 / interlaced=0 / bluray_compat=0 / constrained_intra=0 / bframes=3 / b_pyramid=2 / b_adapt=2 / b_bias=0 / direct=3 / weightb=1 / open_gop=0 / weightp=2 / keyint=250 / keyint_min=25 / scenecut=40 / intra_refresh=0 / rc_lookahead=50 / rc=2pass / mbtree=1 / bitrate=1771 / ratetol=1.0 / qcomp=0.60 / qpmin=0 / qpmax=69 / qpstep=4 / cplxblur=20.0 / qblur=0.5 / ip_ratio=1.40 / aq=1:1.00

Аудио
Идентификатор: 2
Формат: AC-3
Формат/Информация: Audio Coding 3
Расширение режима: CM (complete main)
Идентификатор кодека: A_AC3
Продолжительность: 1 ч. 36 м.
Вид битрейта: Постоянный
Битрейт: 384 Кбит/сек
Каналы: 6 каналов
Расположение каналов: Front: L C R, Side: L R, LFE
Частота: 48,0 КГц
Битовая глубина: 16 бит
Метод сжатия: С потерями
Размер потока: 265 Мбайт (18%)













Поделиться:




реклама партнёра


Вернуться к началу
 Профиль Отправить личное сообщение  
 
   Похожие торренты   Автор   Торрент   Размер 
В этой теме нет новых непрочитанных сообщений. Героини / Heroines (Жерар Кравчик / Gérard Krawczyk) [1997г., Франция, драма, музыка, BDRip-AVC] avo

Alfredovich

9 | 0

2.27 ГБ

В этой теме нет новых непрочитанных сообщений. Слабительное для малыша / On purge bebe (Жерар Журдюи / Gérard Jourd'hui) [2010г., Франция, комедия, SATRip] MVO

Alfredovich

35 | 2

1.1 ГБ

В этой теме нет новых непрочитанных сообщений. Последние рыцари / Last Knights драма, боевик, приключения, 2015] BDRip-AVC, Dub

salma3

79 | 3

2.18 ГБ

В этой теме нет новых непрочитанных сообщений. Рыцари-наездники / Knightriders [боевик, драма, приключения, 1981] HDTV 1080i, Dvo+Avo

salma3

10 | 26

7.25 ГБ

В этой теме нет новых непрочитанных сообщений. Последние рыцари / Last Knights (Казуаки Кирия) [боевик, приключения, 2015] HDRip, Dub [Лицензия]

Dracon

1 | 0

1.46 ГБ

В этой теме нет новых непрочитанных сообщений. Последние рыцари / Last Knights (Казуаки Кирия) [боевик, приключения, 2015] DVD5, Dub [Лицензия]

Dracon

73 | 3

3.51 ГБ

В этой теме нет новых непрочитанных сообщений. Последние рыцари / Last Knights (Казуаки Кирия) [боевик, приключения, 2015] Blu-Ray 1080i, Dub [Лицензия]

Dracon

116 | 13

19.47 ГБ


Начать новую тему Ответить на тему  [ 1 сообщение ] 




Для Мосгорсуда, Роскомнадзора и рекламодателей:: mosgorsud-torrent[собачка]yandex.ru