Торрент файл
скачать торрент магнет ссылка Добавлен: 10 янв 2012, 20:30
Размер: 2.1 ГБ
Сидеров: 52
Личеров: 6
Автор

СообщениеДобавлено: 10 янв 2012, 20:30 

Не в сети
Супермодератор
Аватара пользователя
Дата регистрации:
11 апр 2010, 18:10
Спасибо: 5995 / 7
Сообщения: 56685
13 убийц / 13 Assassins / Jusan-nin no shikaku



Перевод: Любительский (двухголосый), cубтитры: отсутствуют
Формат: DVDRip-AVC, MKV, H.264, AC3
Страна: Япония, Великобритания
Режиссер: Такаси Миике
Жанр: боевик, драма, приключения
Продолжительность: 02:05:01
Год выпуска: 2010

В ролях: Кодзи Якусё, Такаюки Ямада, Юсуке Исейа, Горо Инагаки, Микидзиро Хира, Хироки Мат---та, Икки Савамура, Арата Фурута, Цуеши Ихара

Описание: Действие ленты помещено в эпоху сегунов, а расскажет картина о тайной миссии неких 13 убийц уничтожить злого правителя, выполнить которую оказывается не так-то просто, поскольку численность телохранителей этого злодея в десять раз превосходит количество людей, покушающихся на его жизнь.



Видео: 960 x 416 (2:35:1), 25.000 fps, AVC (х264) , ~ 2316 Kbps, 0.232 bit/pixel
Аудио: 48 kHz, AC3 Dolby Digital, 2/0 (L,R) ch, ~192 kbps


Рип: jeenart

General
Unique ID: 235512248038745985234250494318723359747 (0xB12E0252DB0E7EA5A80B890005CA6403)
Complete name: F:\Мои релизы\Все релизы 10\13_ubijc_[tfile.ru].mkv
Format: Matroska
File size: 2.10 GiB
Duration: 1h 59mn
Overall bit rate: 2 509 Kbps
Encoded date: UTC 2011-10-05 00:21:51
Writing application: mkvmerge v4.6.0 ('Still Crazy After All These Years') сборка от Apr1 2011 21:01:49
Writing library: libebml v1.2.0 + libmatroska v1.1.0

Video
ID: 1
Format: AVC
Format/Info: Advanced Video Codec
Format profile:
Format settings, CABAC: Yes
Format settings, ReFrames: 4 frames
Codec ID: V_MPEG4/ISO/AVC
Duration: 1h 59mn
Bit rate: 2 316 Kbps
Width: 960 pixels
Height: 416 pixels
Display aspect ratio: 2.35:1
Frame rate: 25.000 fps
Color space: YUV
Chroma subsampling: 4:2:0
Bit depth: 8 bits
Scan type: Progressive
Bits/(Pixel*Frame): 0.232
Stream size: 1.90 GiB (90%)
Writing library: x264 core 115 r1937 aa21558
Encoding settings: cabac=1 / ref=3 / deblock=1:-1:-1 / analyse=0x3:0x113 / me=hex / subme=7 / psy=1 / psy_rd=1.00:0.10 / mixed_ref=1 / me_range=16 / chroma_me=1 / trellis=1 / 8x8dct=1 / cqm=0 / deadzone=21,11 / fast_pskip=1 / chroma_qp_offset=-3 / threads=6 / sliced_threads=0 / nr=0 / decimate=1 / interlaced=0 / bluray_compat=0 / constrained_intra=0 / bframes=3 / b_pyramid=2 / b_adapt=1 / b_bias=0 / direct=1 / weightb=1 / open_gop=0 / weightp=2 / keyint=250 / keyint_min=25 / scenecut=40 / intra_refresh=0 / rc_lookahead=40 / rc=2pass / mbtree=1 / bitrate=2316 / ratetol=1.0 / qcomp=0.60 / qpmin=0 / qpmax=69 / qpstep=4 / cplxblur=20.0 / qblur=0.5 / ip_ratio=1.40 / aq=1:1.00

Audio
ID: 2
Format: AC-3
Format/Info: Audio Coding 3
Mode extension: CM (complete main)
Codec ID: A_AC3
Duration: 1h 59mn
Bit rate mode: Constant
Bit rate: 192 Kbps
Channel(s): 2 channels
Channel positions: Front: L R
Sampling rate: 48.0 KHz
Bit depth: 16 bits
Compression mode: Lossy
Stream size: 165 MiB (8%)

















Поделиться:



Вернуться к началу
 Профиль Отправить личное сообщение  
 
   Похожие торренты   Автор   Торрент   Размер 
В этой теме нет новых непрочитанных сообщений. Ранг убийц / Kill Ratio [боевик, 2016] WEB-DLRip, Mvo

salma3

1135 | 333

1.37 ГБ

В этой теме нет новых непрочитанных сообщений. Наемные убийцы / Assassins [Боевик, триллер, криминал, 1995] BDRip-AVC, Dub

salma3

7 | 0

745.85 МБ

В этой теме нет новых непрочитанных сообщений. Наемные убийцы / Assassins [Боевик, триллер, криминал, 1995] BDRip-AVC, Dub

salma3

38 | 11

1.46 ГБ

В этой теме нет новых непрочитанных сообщений. Наемные убийцы / Assassins [боевик, триллер, криминал, 1995] HDRip, Dub

salma3

60 | 16

2.17 ГБ

В этой теме нет новых непрочитанных сообщений. Наемные убийцы / Assassins [Боевик, триллер, криминал, 1995] BDRip 720p, Dub

salma3

1 | 32

7.75 ГБ

В этой теме нет новых непрочитанных сообщений. Наемные убийцы / Assassins [Боевик, триллер, криминал, 1995] BDRemux 1080p, Dub

salma3

4 | 6

26.38 ГБ

В этой теме нет новых непрочитанных сообщений. Элита убийц / The Killer Elite [боевик, триллер, криминал, 1975] BDRemux 1080p, Mvo+Dvo+Avo+Sub

salma3

14 | 10

19.53 ГБ


Начать новую тему Ответить на тему  [ 1 сообщение ] 




Для Мосгорсуда, Роскомнадзора и рекламодателей:: mosgorsud-torrent[собачка]yandex.ru
cron