Торрент файл
скачать торрент магнет ссылка Добавлен: 10 янв 2012, 20:28
Размер: 2.1 ГБ
Сидеров: 36
Личеров: 12
Автор

СообщениеДобавлено: 10 янв 2012, 20:28 

Не в сети
Супермодератор
Аватара пользователя
Дата регистрации:
11 апр 2010, 18:10
Спасибо: 5801 / 7
Сообщения: 56779
Остров Головорезов / Cutthroat Island




Перевод: Профессиональный (многоголосый, закадровый).субтитры: отсутствуют
Формат: HDRip-AVC, MKV, H.264, AC3
Страна: США, Германия, Франция, Италия
Жанр: боевик, мелодрама, комедия, приключения, семейный
Продолжительность: 02:04:00
Режиссер: Ренни Харлин / Renny Harlin
Год выпуска: 1995

В ролях: Джина Дэвис, Мэтью Модайн, Фрэнк Ланджелла, Мори Чайкин, Патрик Мэлахайд, Стэн Шоу, Рекс Линн, Пол Диллон, Кристофер Мастерсон, Джимми Ф. Скэггз

Описание:Отважная дочь пирата Морган Эдамс жаждет отомстить за своего отца, погибшего от рук собственного брата. Ей досталась в наследство треть карты Острова Головорезов с обозначением места, где спрятаны несметные сокровища. Чтобы добраться до них, Морган набирает команду из старых боевых товарищей отца.

На аукционе рабов в Порт-Ройяле на Ямайке она покупает авантюриста и проходимца Уильяма Шоу, у которого оказывается вторая часть карты. Но главная проблема в том, что последняя часть карты находится у злого и коварного дяди Морган — пирата по прозвищу «Дог»…


________

Видео: 1280 x 544 (2:35:1),23,976 кадр/сек, AVC (х264), , ~ 2032 Kbps, 0.122 bit/pixel
Аудио: 48 kHz, AC3 Dolby Digital, 3/2 (L,C,R,l,r) + LFE ch, ~384 kbps


Автор РИПа:ddimmon22
Общее
Уникальный идентификатор: 184249431455923909399386852313278363934 (0x8A9D26548E72399EA332605A0F7AB91E)
Полное имя: I:\oktzbr rupu\cutthroat_island_[tfile.ru].mkv
Формат: Matroska
Версия формата: Version 2
Размер файла: 2,10 Гбайт
Продолжительность: 2 ч. 4 м.
Общий поток: 2417 Кбит/сек
Дата кодирования: UTC 2011-10-13 21:41:16
Программа кодирования: mkvmerge v4.9.1 ('Ich will') сборка от Aug 10 2011 09:31:20
Библиотека кодирования: libebml v1.2.1 + libmatroska v1.2.0

Видео
Идентификатор: 1
Формат: AVC
Формат/Информация: Advanced Video Codec
Профиль формата:
Параметр CABAC формата: Да
Параметр ReFrames формата: 4 кадра
Идентификатор кодека: V_MPEG4/ISO/AVC
Продолжительность: 2 ч. 4 м.
Битрейт: 2032 Кбит/сек
Ширина: 1280 пикс.
Высота: 544 пикс.
Соотношение сторон: 2,35:1
Частота кадров: 23,976 кадр/сек
Цветовое пространство: YUV
Подвыборка цветности: 4:2:0
Битовая глубина: 8 бит
Тип развёртки: Прогрессивная
Бит/(Пиксели*Кадры): 0.122
Размер потока: 1,73 Гбайт (82%)
Библиотека кодирования: x264 core 116 r2074 2641b9e
Настройки программы: cabac=1 / ref=3 / deblock=1:0:0 / analyse=0x3:0x113 / me=hex / subme=7 / psy=1 / psy_rd=1.00:0.00 / mixed_ref=1 / me_range=16 / chroma_me=1 / trellis=1 / 8x8dct=1 / cqm=0 / deadzone=21,11 / fast_pskip=1 / chroma_qp_offset=-2 / threads=6 / sliced_threads=0 / nr=0 / decimate=1 / interlaced=0 / bluray_compat=0 / constrained_intra=0 / bframes=3 / b_pyramid=2 / b_adapt=1 / b_bias=0 / direct=1 / weightb=1 / open_gop=0 / weightp=2 / keyint=250 / keyint_min=23 / scenecut=40 / intra_refresh=0 / rc_lookahead=40 / rc=2pass / mbtree=1 / bitrate=2032 / ratetol=1.0 / qcomp=0.60 / qpmin=0 / qpmax=69 / qpstep=4 / cplxblur=20.0 / qblur=0.5 / ip_ratio=1.40 / aq=1:1.00

Аудио
Идентификатор: 2
Формат: AC-3
Формат/Информация: Audio Coding 3
Расширение режима: CM (complete main)
Идентификатор кодека: A_AC3
Продолжительность: 2 ч. 4 м.
Вид битрейта: Постоянный
Битрейт: 384 Кбит/сек
Каналы: 6 каналов
Расположение каналов: Front: L C R, Side: L R, LFE
Частота: 48,0 КГц
Битовая глубина: 16 бит
Метод сжатия: С потерями
Размер потока: 342 Мбайт (16%)

















Поделиться:




реклама партнёра


Вернуться к началу
 Профиль Отправить личное сообщение  
 
   Похожие торренты   Автор   Торрент   Размер 
В этой теме нет новых непрочитанных сообщений. Остров динозавров / Dinosaur Island (Матт Друммонд) [Детский, фантастика, приключения, семейный, 2014] HDRip, avo

Dracon

1071 | 48

1.37 ГБ

В этой теме нет новых непрочитанных сообщений. Геракл: Начало легенды / The Legend of Hercules (Ренни Харлин) [2014, боевик, фэнтези, HDRip | Чистый звук] Dub

PriZraK

2952 | 125

1.45 ГБ

В этой теме нет новых непрочитанных сообщений. Затерянный остров / Lost Island [приключения, семейный, 1994] VHSRip, Avo

salma3

4 | 5

1.42 ГБ

В этой теме нет новых непрочитанных сообщений. Остров динозавров / Dinosaur Island (Матт Друммонд) [Детский, фантастика, приключения, семейный, 2014] BDRemux 1080p, avo

Dracon

0 | 0

16.25 ГБ

В этой теме нет новых непрочитанных сообщений. Нападение на Остров Дьявола / Assault on Devil's Island [боевик, триллер, приключения, 1997] DVDRip, Mvo

salma3

20 | 5

1.37 ГБ

В этой теме нет новых непрочитанных сообщений. Грейсленд / Graceland [S03] (Ренни Харлин) [2015, Драма, WEB-DL 720p | NewStudio]

Dracon

86 | 59

18.08 ГБ

В этой теме нет новых непрочитанных сообщений. Грейсленд / Graceland [S03] (Ренни Харлин) [2015, Драма, WEB-DLRip | NewStudio]

Nickolas3435

332 | 255

6.98 ГБ


Начать новую тему Ответить на тему  [ 1 сообщение ] 




Для Мосгорсуда, Роскомнадзора и рекламодателей:: mosgorsud-torrent[собачка]yandex.ru