Торрент файл
скачать торрент магнет ссылка Добавлен: 10 янв 2012, 20:28
Размер: 2 ГБ
Сидеров: 6
Личеров: 8
Автор

СообщениеДобавлено: 10 янв 2012, 20:28 

Не в сети
Супермодератор
Аватара пользователя
Дата регистрации:
11 апр 2010, 18:10
Спасибо: 5801 / 7
Сообщения: 56779
Широко шагая / Walking Tall




Перевод: Профессиональный (многоголосый, закадровый).субтитры: отсутствуют
Формат: HDRip-AVC, MKV, H.264, AC3
Страна: США
Жанр: боевик, триллер, драма, комедия, криминал, биография
Продолжительность: 01:26:00
Режиссер: Кевин Брэй/ Kevin Bray
Год выпуска: 2004

В ролях: Дуэйн Джонсон, Джонни Ноксвил, Нил МакДонаф, Кристен Уилсон, Эшли Скотт, Хлео Томас, Джон Бизли, Барбара Тарбак, Майкл Боуэн, Кевин Дюран

Описание:Шериф графства МакНейри Буфорд Пассер, оставался на своем посту три срока подряд. За время своей службы он отчаянно боролся с преступностью, не раз вступая в неравную схватку. После убийства его горячо любимой жены он почувствовал себя совершенно беспомощным. Но вот солдат особых войск армии США Крис Ваугн возвращается домой, надеясь наладить небольшой семейный бизнес, за время его отсутствия многое изменилось…

Уютный, спокойный городок теперь кишит насилием, заполнен наркотиками, а террор стал там обычным делом. За всем этим стоит хозяин казино, в котором его бывшая подружка работает танцовщицей. Исполненный жажды мести и справедливости, отлично подготовленный солдат Крис становится шерифом.


________

Видео: 1280 x 544 (2:35:1), 23,976 кадр/сек, AVC (х264), , ~ 2942 Kbps, 0.176 bit/pixel
Аудио: 48 kHz, AC3 Dolby Digital, 3/2 (L,C,R,l,r) + LFE ch, ~384 kbps


Автор РИПа:ddimmon22
Общее
Уникальный идентификатор: 249744141097667679032398141860863431337 (0xBBE2F8D384EA8630923F160BC4DA52A9)
Полное имя: I:\oktzbr rupu\walking_tall_[tfile.ru].mkv
Формат: Matroska
Версия формата: Version 2
Размер файла: 2,00 Гбайт
Продолжительность: 1 ч. 26 м.
Общий поток: 3316 Кбит/сек
Дата кодирования: UTC 2011-10-14 08:59:43
Программа кодирования: mkvmerge v4.9.1 ('Ich will') сборка от Aug 10 2011 09:31:20
Библиотека кодирования: libebml v1.2.1 + libmatroska v1.2.0

Видео
Идентификатор: 1
Формат: AVC
Формат/Информация: Advanced Video Codec
Профиль формата:
Параметр CABAC формата: Да
Параметр ReFrames формата: 4 кадра
Идентификатор кодека: V_MPEG4/ISO/AVC
Продолжительность: 1 ч. 26 м.
Битрейт: 2942 Кбит/сек
Ширина: 1280 пикс.
Высота: 544 пикс.
Соотношение сторон: 2,35:1
Частота кадров: 23,976 кадр/сек
Цветовое пространство: YUV
Подвыборка цветности: 4:2:0
Битовая глубина: 8 бит
Тип развёртки: Прогрессивная
Бит/(Пиксели*Кадры): 0.176
Размер потока: 1,73 Гбайт (86%)
Библиотека кодирования: x264 core 116 r2074 2641b9e
Настройки программы: cabac=1 / ref=3 / deblock=1:0:0 / analyse=0x3:0x113 / me=hex / subme=7 / psy=1 / psy_rd=1.00:0.00 / mixed_ref=1 / me_range=16 / chroma_me=1 / trellis=1 / 8x8dct=1 / cqm=0 / deadzone=21,11 / fast_pskip=1 / chroma_qp_offset=-2 / threads=6 / sliced_threads=0 / nr=0 / decimate=1 / interlaced=0 / bluray_compat=0 / constrained_intra=0 / bframes=3 / b_pyramid=2 / b_adapt=1 / b_bias=0 / direct=1 / weightb=1 / open_gop=0 / weightp=2 / keyint=250 / keyint_min=23 / scenecut=40 / intra_refresh=0 / rc_lookahead=40 / rc=2pass / mbtree=1 / bitrate=2942 / ratetol=1.0 / qcomp=0.60 / qpmin=0 / qpmax=69 / qpstep=4 / cplxblur=20.0 / qblur=0.5 / ip_ratio=1.40 / aq=1:1.00

Аудио
Идентификатор: 2
Формат: AC-3
Формат/Информация: Audio Coding 3
Расширение режима: CM (complete main)
Идентификатор кодека: A_AC3
Продолжительность: 1 ч. 26 м.
Вид битрейта: Постоянный
Битрейт: 384 Кбит/сек
Каналы: 6 каналов
Расположение каналов: Front: L C R, Side: L R, LFE
Частота: 48,0 КГц
Битовая глубина: 16 бит
Метод сжатия: С потерями
Размер потока: 238 Мбайт (12%)














Поделиться:




реклама партнёра


Вернуться к началу
 Профиль Отправить личное сообщение  
 
   Похожие торренты   Автор   Торрент   Размер 
В этой теме нет новых непрочитанных сообщений. Альбино Аллигатор / Albino Alligator (Кевин Спейси / Kevin Spacey) [1996г., триллер, драма, криминал, BDRip-AVC] MVO

Alfredovich

3 | 4

2.18 ГБ

В этой теме нет новых непрочитанных сообщений. Форс-Мажоры / Suits [S01-04] (Кевин Брэй, Майкл Смит, Антон Кроппер) [драма, комедия, 2011-2015] WEB-DLRip [Первый канал, NewStudio]

Dracon

408 | 462

34.85 ГБ

В этой теме нет новых непрочитанных сообщений. Форс-мажоры / Suits [Season 5, episodes 1-13 of 16] (Кевин Брэй, Джон Скотт) [драма, 2015] WEB-DLRip [NewStudio]

Dracon

110 | 439

6.98 ГБ

В этой теме нет новых непрочитанных сообщений. Супружеский долг / Satisfaction [02х01-05 из 10] (Кевин Брэй, Дженнифер Гетцингер, Майк Листо) [2015, Драма, WEB-DL 720p | BaibaKo]

Dracon

43 | 39

7.04 ГБ

В этой теме нет новых непрочитанных сообщений. Кевин подождет / Kevin Can Wait [01x01-07 из 13] (Комедия, 2016) WEB-DL 720p | IdeaFilm

marya111

10 | 9

4.69 ГБ

В этой теме нет новых непрочитанных сообщений. Кевин подождет / Kevin Can Wait [01x01-09 из 13] ( Комедия, 2016) WEB-DL 720p | IdeaFilm

marya111

31 | 24

6.1 ГБ

В этой теме нет новых непрочитанных сообщений. Кевин подождет / Kevin Can Wait [01x01-10 из 22] [Комедия, 2016] WEB-DLRip, Mvo [IdeaFilm]

salma3

21 | 28

2.82 ГБ


Начать новую тему Ответить на тему  [ 1 сообщение ] 




Для Мосгорсуда, Роскомнадзора и рекламодателей:: mosgorsud-torrent[собачка]yandex.ru