Торрент файл
скачать торрент магнет ссылка Добавлен: 10 янв 2012, 20:26
Размер: 1.45 ГБ
Сидеров: 15
Личеров: 5
Автор

СообщениеДобавлено: 10 янв 2012, 20:26 

Не в сети
Супермодератор
Аватара пользователя
Дата регистрации:
11 апр 2010, 18:10
Спасибо: 5801 / 7
Сообщения: 56779
Игра по-крупному / War, Inc.




Перевод: Профессиональный (полное дублирование), субтитры: отсутствуют
Формат: HDRip-AVC, MKV, H.264, AC3
Страна: США
Жанр: боевик, триллер, комедия,
Продолжительность: 01:46:00
Режиссер: Джошуа Сэфтел / Joshua Seftel
Год выпуска: 2008

В ролях:Джон Кьюсак, Хилари Дафф, Мариса Томей, Дэн Эйкройд, Сергей Трифунович, Нед Беллами, Джон МакЛафлин, Монтель Уильямс, Бен Кингсли.

Описание: Мощные транснациональные корпорации имеют не только огромные активы. Они располагают и мощными «частными армиями», которые способны вести «хорошую» войну в любой части «третьего мира». Брэнд Хаузер — супер-агент корпорации «Тамерлан». Устранив в Канаде людей, неугодных его боссам, он уже вскоре — в жаркой азиатской стране Туракистан, охваченной междоусобной войной и оккупированной войсками «Тамерлана». Здесь Хаузер должен устранить видного местного деятеля, используя как прикрытие большое шоу, кульминацией которого должна стать свадьба поп-звезды с сынком местного магната.
Но на этот раз хаос, в который корпорация «Тамерлан» погрузила несчастную страну, выводит из себя и невозмутимого супермена. К тому же его сердце начинает разрываться между двумя возлюбленными… Когда же выясняется, что, покинув много лет назад ЦРУ, он на самом деле все равно работал на «подонков из Лэнгли», Брэнд начинает свою собственную войну!


________

Видео: 960x400 (2:40:0),23,976 кадр/сек, AVC (х264), , ~ 1563 Kbps,0.170 bit/pixel
Аудио: 48 kHz, AC3 Dolby Digital, 3/2 (L,C,R,l,r) + LFE ch, ~384 kbps

Автор РИПа:ANDREY22W22
Общее
Уникальный идентификатор: 220928704122265644604965183580816372165 (0xA63552185F024E68A0D1742F910971C5)
Полное имя: E:\рипы\War.Inc.2008.BDRip.1080p.h264.Rus.Eng.Subs (1).mkv
Формат: Matroska
Версия формата: Version 2
Размер файла: 1,45 Гбайт
Продолжительность: 1 ч. 46 м.
Общий поток: 1948 Кбит/сек
Дата кодирования: UTC 2011-10-15 17:51:56
Программа кодирования: mkvmerge v4.9.1 ('Ich will') зібрано Aug 10 2011 09:31:20
Библиотека кодирования: libebml v1.2.1 + libmatroska v1.2.0

Видео
Идентификатор: 1
Формат: AVC
Формат/Информация: Advanced Video Codec
Профиль формата:
Параметр CABAC формата: Да
Параметр ReFrames формата: 4 кадра
Идентификатор кодека: V_MPEG4/ISO/AVC
Продолжительность: 1 ч. 46 м.
Битрейт: 1563 Кбит/сек
Ширина: 960 пикс.
Высота: 400 пикс.
Соотношение сторон: 2,40:1
Частота кадров: 23,976 кадр/сек
Цветовое пространство: YUV
Подвыборка цветности: 4:2:0
Битовая глубина: 8 бит
Тип развёртки: Прогрессивная
Бит/(Пиксели*Кадры): 0.170
Размер потока: 1,14 Гбайт (78%)
Библиотека кодирования: x264 core 116 r2074 2641b9e
Настройки программы: cabac=1 / ref=3 / deblock=1:-1:-1 / analyse=0x3:0x113 / me=hex / subme=7 / psy=1 / psy_rd=1.00:0.10 / mixed_ref=1 / me_range=16 / chroma_me=1 / trellis=1 / 8x8dct=1 / cqm=0 / deadzone=21,11 / fast_pskip=1 / chroma_qp_offset=-3 / threads=12 / sliced_threads=0 / nr=0 / decimate=1 / interlaced=0 / bluray_compat=0 / constrained_intra=0 / bframes=3 / b_pyramid=2 / b_adapt=1 / b_bias=0 / direct=3 / weightb=1 / open_gop=0 / weightp=2 / keyint=250 / keyint_min=23 / scenecut=40 / intra_refresh=0 / rc_lookahead=40 / rc=2pass / mbtree=1 / bitrate=1563 / ratetol=1.0 / qcomp=0.60 / qpmin=0 / qpmax=69 / qpstep=4 / cplxblur=20.0 / qblur=0.5 / ip_ratio=1.40 / aq=1:1.00

Аудио
Идентификатор: 2
Формат: AC-3
Формат/Информация: Audio Coding 3
Расширение режима: CM (complete main)
Идентификатор кодека: A_AC3
Продолжительность: 1 ч. 46 м.
Вид битрейта: Постоянный
Битрейт: 384 Кбит/сек
Каналы: 6 каналов
Расположение каналов: Front: L C R, Side: L R, LFE
Частота: 48,0 КГц
Битовая глубина: 16 бит
Метод сжатия: С потерями
Размер потока: 294 Мбайт (20%)










Поделиться:




реклама партнёра


Вернуться к началу
 Профиль Отправить личное сообщение  
 
   Похожие торренты   Автор   Торрент   Размер 
В этой теме нет новых непрочитанных сообщений. Дерево Джошуа / Joshua Tree [боевик, триллер, приключения, 1993] DVD-9, Avo

salma3

5 | 5

4.97 ГБ

В этой теме нет новых непрочитанных сообщений. Дерево Джошуа / Joshua Tree [боевик, триллер, драма, 1993] BDRip, Dub

salma3

21 | 1

1.45 ГБ

В этой теме нет новых непрочитанных сообщений. Joshua (Joshua Perahia) - Resurrection [2012,Hard Rock,Heavy Metal,MP3]

PriZraK

0 | 1

150.56 МБ

В этой теме нет новых непрочитанных сообщений. Двойная игра / Crook (Адриан Лэнгли) [Боевик, Триллер, 2013] HDRip, avo

Dracon

11 | 2

1.47 ГБ

В этой теме нет новых непрочитанных сообщений. Двойная игра / Gutshot Straight (Джастин Стил) [Боевик, Триллер, 2015] HDRip, Mvo

Dracon

13154 | 772

1.37 ГБ

В этой теме нет новых непрочитанных сообщений. Фантастическая четверка / Fantastic Four (Джошуа Транк) [фантастика, боевик, приключения, 2015] HDRip, dub [Чистый звук]

Dracon

1514 | 9

1.45 ГБ

В этой теме нет новых непрочитанных сообщений. Маленькая смерть / The Little Death (Джошуа Лосон) [комедия, 2014] HDRip, Mvo [iTunes]

Dracon

191 | 59

1.46 ГБ


Начать новую тему Ответить на тему  [ 1 сообщение ] 




Для Мосгорсуда, Роскомнадзора и рекламодателей:: mosgorsud-torrent[собачка]yandex.ru