Торрент файл
скачать торрент магнет ссылка Добавлен: 10 янв 2012, 20:26
Размер: 2.1 ГБ
Сидеров: 32
Личеров: 9
Автор

СообщениеДобавлено: 10 янв 2012, 20:26 

Не в сети
Супермодератор
Аватара пользователя
Дата регистрации:
11 апр 2010, 18:10
Спасибо: 5802 / 7
Сообщения: 56779
S.P.L. Звезды судьбы /Saat po long




Перевод: Профессиональный (многоголосый, закадровый).субтитры: отсутствуют
Формат: HDRip-AVC, MKV, H.264, AC3
Страна: Гонконг, Макао
Жанр: боевик, триллер, драма, криминал
Продолжительность: 01:32:00
Режиссер: Уилсон Ип / Wilson Yip
Год выпуска: 2005

В ролях: Донни Ен, Саймон Ям, Саммо Хунг Кам-Бо, Джеки Ву, Лью Кай Чи, Дэнни Саммер, Кен Чанг, Остин Вэй, Тимми Хунг, Тат Чи Чан

Описание:Sha, Po, Lang — звезды, чье положительное или отрицательное влияние восточные астрологи определяют, исходя из их взаимного расположения… Как встанут эти светила сейчас?

Детектив Чан заботится о дочери убитого полицейского, мечтая отомстить убийце, «королю» якудзы По. Чан так сильно жаждет мести, что в его душе стирается грань между добром и злом. В роковое противостояние оказывается невольно вовлечен и Ма, сотрудник Чана. Теперь все трое — участники смертельного поединка…


____

Видео: 1280 x 720(1:77:7),24,000 кадр/сек, AVC (х264), , ~2858 Kbps, 0.129 bit/pixel
Аудио: 48 kHz, AC3 Dolby Digital, 3/2 (L,C,R,l,r) + LFE ch, ~384 kbps


Автор РИПа:ddimmon22
Общее
Уникальный идентификатор: 186362832918515565006624291813662822916 (0x8C342D1135DF415F9B1E5F89E4069204)
Полное имя: I:\oktzbr rupu\saat_po_iong_[tfile.ru].mkv
Формат: Matroska
Версия формата: Version 2
Размер файла: 2,10 Гбайт
Продолжительность: 1 ч. 32 м.
Общий поток: 3242 Кбит/сек
Дата кодирования: UTC 2011-10-17 19:00:48
Программа кодирования: mkvmerge v4.9.1 ('Ich will') сборка от Aug 10 2011 09:31:20
Библиотека кодирования: libebml v1.2.1 + libmatroska v1.2.0

Видео
Идентификатор: 1
Формат: AVC
Формат/Информация: Advanced Video Codec
Профиль формата:
Параметр CABAC формата: Да
Параметр ReFrames формата: 5 кадров
Идентификатор кодека: V_MPEG4/ISO/AVC
Продолжительность: 1 ч. 32 м.
Битрейт: 2858 Кбит/сек
Ширина: 1280 пикс.
Высота: 720 пикс.
Соотношение сторон: 16:9
Частота кадров: 24,000 кадр/сек
Цветовое пространство: YUV
Подвыборка цветности: 4:2:0
Битовая глубина: 8 бит
Тип развёртки: Прогрессивная
Бит/(Пиксели*Кадры): 0.129
Размер потока: 1,81 Гбайт (86%)
Библиотека кодирования: x264 core 116 r2074 2641b9e
Настройки программы: cabac=1 / ref=5 / deblock=1:-1:-1 / analyse=0x3:0x113 / me=umh / subme=8 / psy=1 / psy_rd=1.00:0.10 / mixed_ref=1 / me_range=16 / chroma_me=1 / trellis=1 / 8x8dct=1 / cqm=0 / deadzone=21,11 / fast_pskip=1 / chroma_qp_offset=-3 / threads=12 / sliced_threads=0 / nr=0 / decimate=1 / interlaced=0 / bluray_compat=0 / constrained_intra=0 / bframes=3 / b_pyramid=2 / b_adapt=2 / b_bias=0 / direct=3 / weightb=1 / open_gop=0 / weightp=2 / keyint=250 / keyint_min=24 / scenecut=40 / intra_refresh=0 / rc_lookahead=50 / rc=2pass / mbtree=1 / bitrate=2858 / ratetol=1.0 / qcomp=0.60 / qpmin=0 / qpmax=69 / qpstep=4 / cplxblur=20.0 / qblur=0.5 / ip_ratio=1.40 / aq=1:1.00

Аудио
Идентификатор: 2
Формат: AC-3
Формат/Информация: Audio Coding 3
Расширение режима: CM (complete main)
Идентификатор кодека: A_AC3
Продолжительность: 1 ч. 32 м.
Вид битрейта: Постоянный
Битрейт: 384 Кбит/сек
Каналы: 6 каналов
Расположение каналов: Front: L C R, Side: L R, LFE
Частота: 48,0 КГц
Битовая глубина: 16 бит
Метод сжатия: С потерями
Размер потока: 255 Мбайт (12%)















Поделиться:




реклама партнёра


Вернуться к началу
 Профиль Отправить личное сообщение  
 
   Похожие торренты   Автор   Торрент   Размер 
В этой теме нет новых непрочитанных сообщений. S.P.L. Звезды судьбы 2 / Saat po long 2 (Поу-Сои Чинг) [боевик, драма, криминал, 2015] HDTVRip, dvo

Dracon

99 | 2

1.46 ГБ

В этой теме нет новых непрочитанных сообщений. S.P.L. Звёзды судьбы / Sha po long [боевик, триллер, драма, криминал, 2005] BDRip 720p, Mvo+Dvo+Sub

salma3

217 | 28

4.6 ГБ

В этой теме нет новых непрочитанных сообщений. Любовь Джульетты / Juliet in Love (Уилсон Йип / Wilson Yip) [2000г., Гонконг, драма, мелодрама, DVDRip] VO

Alfredovich

2 | 2

1.37 ГБ

В этой теме нет новых непрочитанных сообщений. Пересекающиеся линии / Пересекая черту / Crossing Lines [S02] (Дэниэл Персивал, Эрик Валетт, Энди Уилсон) [2014, Боевик, драма, криминал, HDRip | Sony Turbo]

Nickolas3435

201 | 73

9.36 ГБ

В этой теме нет новых непрочитанных сообщений. Пересекая черту / Crossing Lines [03x01-07 из 12] (Дэниэл Персивал, Эрик Валетт, Энди Уилсон) [2015, Боевик, драма, криминал, HDTVRip | Sony Turbo]

Dracon

126 | 35

3.14 ГБ

В этой теме нет новых непрочитанных сообщений. Хаос / Chaos [Боевик, триллер, драма, криминал, 2005] BDRip, Avo [Гаврилов]

salma3

31 | 2

1.45 ГБ

В этой теме нет новых непрочитанных сообщений. Огненные Братья / Jiang hu long hu men [боевик, криминал, 1987] DVDRip, Mvo

salma3

6 | 4

1.45 ГБ


Начать новую тему Ответить на тему  [ 1 сообщение ] 




Для Мосгорсуда, Роскомнадзора и рекламодателей:: mosgorsud-torrent[собачка]yandex.ru