Торрент файл
скачать торрент магнет ссылка Добавлен: 10 янв 2012, 20:26
Размер: 1.36 ГБ
Сидеров: 217
Личеров: 19
Автор

СообщениеДобавлено: 10 янв 2012, 20:26 

Не в сети
Супермодератор
Аватара пользователя
Дата регистрации:
11 апр 2010, 18:10
Спасибо: 5802 / 7
Сообщения: 56779
Спасатель/ The Guardian


Перевод: Профессиональный (полное дублирование)
Субтитры: Отсутствуют
Формат: HDRip-AVC, MKV, H.264, AC-3
Страна: США
Режиссер: Эндрю Дэвис
Жанр: боевик, драма, приключения
Продолжительность: 02:19:04
Год выпуска: 2006

В ролях: Кевин Костнер, Эштон Катчер, Села Уорд, Мелисса Сейджмиллер, Клэнси Браун, Омари Хардвик, Алекс Дэниелс, Дэниэл Л. Молтен, Эндрю Шанно, Адам Пеня

Описание: Бен Рэнделл, легендарный пловец-спасатель когда-то в ужасной катастрофе потерял всю свою команду. Чтобы найти свое место в жизни, и забыть о том страшном событии, он решает пойти в Береговую охрану, где в его обязанности входит тренировка молодых спасателей. Здесь, он сталкивается с молодым и талантливым пловцом «с характером» Джейком Фишером. В процессе обучения Бен помогает Джейку скомбинировать его характер с его способностями. В конце обучения они вдвоем отправляются к Аляске, в Берингово море, где Джейку придется пройти самое важное испытание…



Видео: 720x384 (1.875:1), 23,976 fps, AVC MPEG-4 (x264), , ~1019 кbps avg, 0.154 bit/pixel
Аудио:Русский 48 kHz, AC-3, 6 ch, ~384 kbps avg [Профессиональный (полное дублирование)]

Слоган:«Жертвуй всем, когда нужно спасти людей»

Релиз rip by mimigen

General
Unique ID: 217946574002732483658216664034757031819 (0xA3F6FBBA859608569CD6DF939E33B78B)
Complete name: C:\**\**\**\**\guardian_[tfile.ru].mkv
Format: Matroska
Format version: Version 2
File size: 1.36 GiB
Duration: 2h 19mn
Overall bit rate: 1 405 Kbps
Encoded date: UTC 2011-09-18 18:15:01
Writing application: mkvmerge v4.0.0 ('The Stars were mine') сборка от Jun6 2010 16:18:42
Writing library: libebml v1.0.0 + libmatroska v1.0.0

Video
ID: 1
Format: AVC
Format/Info: Advanced Video Codec
Format profile:
Format settings, CABAC: Yes
Format settings, ReFrames: 7 frames
Codec ID: V_MPEG4/ISO/AVC
Duration: 2h 19mn
Bit rate mode: Variable
Bit rate: 1 019 Kbps
Maximum bit rate: 14.0 Mbps
Width: 720 pixels
Height: 384 pixels
Display aspect ratio: 1.875
Frame rate: 23.976 fps
Color space: YUV
Chroma subsampling: 4:2:0
Bit depth: 8 bits
Scan type: Progressive
Bits/(Pixel*Frame): 0.154
Stream size: 988 MiB (71%)
Writing library: x264 core 116 r2074 2641b9e
Encoding settings: cabac=1 / ref=8 / deblock=1:-2:-1 / analyse=0x3:0x113 / me=umh / subme=9 / psy=1 / psy_rd=1.00:0.15 / mixed_ref=1 / me_range=32 / chroma_me=1 / trellis=0 / 8x8dct=1 / cqm=0 / deadzone=21,11 / fast_pskip=0 / chroma_qp_offset=-2 / threads=6 / sliced_threads=0 / slices=4 / nr=0 / decimate=0 / interlaced=0 / bluray_compat=0 / constrained_intra=0 / bframes=6 / b_pyramid=1 / b_adapt=2 / b_bias=0 / direct=3 / weightb=1 / open_gop=0 / weightp=0 / keyint=24 / keyint_min=2 / scenecut=40 / intra_refresh=0 / rc_lookahead=24 / rc=2pass / mbtree=1 / bitrate=1019 / ratetol=1.0 / qcomp=0.60 / qpmin=10 / qpmax=51 / qpstep=4 / cplxblur=20.0 / qblur=0.5 / vbv_maxrate=14000 / vbv_bufsize=14500 / nal_hrd=vbr / ip_ratio=1.40 / aq=2:1.00
Language: English

Audio
ID: 2
Format: AC-3
Format/Info: Audio Coding 3
Mode extension: CM (complete main)
Codec ID: A_AC3
Duration: 2h 19mn
Bit rate mode: Constant
Bit rate: 384 Kbps
Channel(s): 6 channels
Channel positions: Front: L C R, Side: L R, LFE
Sampling rate: 48.0 KHz
Bit depth: 16 bits
Compression mode: Lossy
Stream size: 382 MiB (27%)








Поделиться:




реклама партнёра


Вернуться к началу
 Профиль Отправить личное сообщение  
 
   Похожие торренты   Автор   Торрент   Размер 
В этой теме нет новых непрочитанных сообщений. Спасатель / The Guardian [боевик, драма, приключения, 2006] BDRip, Dub

salma3

70 | 7

1.46 ГБ

В этой теме нет новых непрочитанных сообщений. Ангел-хранитель / Guardian Angel [Боевик, 1994] DVDRip, Dvo

salma3

32 | 4

1.46 ГБ

В этой теме нет новых непрочитанных сообщений. Sacred Guardian - Sacred Guardian [2012, Heavy Metal, Power Metal, MP3]

PriZraK

1 | 5

144.01 МБ

В этой теме нет новых непрочитанных сообщений. Страж времени / The Time Guardian [фантастика, боевик, 1987] DVDRip, Avo

salma3

5 | 2

1.46 ГБ

В этой теме нет новых непрочитанных сообщений. В поисках Дори / Finding Dory (Эндрю Стэнтон, Энгус МакЛэйн) [2016, Мультфильм, комедия, приключения, семейный, HDRip | Локализованный видеоряд | Лицензия] Dub

marya111

473 | 27

1.46 ГБ

В этой теме нет новых непрочитанных сообщений. 45 лет / 45 Years (Эндрю Хэй) [Драма, мелодрама, 2015] HDRip, mvo [Чистый звук]

Dracon

319 | 7

1.46 ГБ

В этой теме нет новых непрочитанных сообщений. Снег в раю / Snow in Paradise (Эндрю Хьюм) [Триллер, драма, криминал, 2014] HDRip, dvo

Dracon

399 | 37

1.41 ГБ


Начать новую тему Ответить на тему  [ 1 сообщение ] 




Для Мосгорсуда, Роскомнадзора и рекламодателей:: mosgorsud-torrent[собачка]yandex.ru