Торрент файл
скачать торрент магнет ссылка Добавлен: 10 янв 2012, 20:23
Размер: 2.07 ГБ
Сидеров: 151
Личеров: 13
Автор

СообщениеДобавлено: 10 янв 2012, 20:23 

Не в сети
Супермодератор
Аватара пользователя
Дата регистрации:
11 апр 2010, 18:10
Спасибо: 5962 / 7
Сообщения: 56762
Расплата / Blood Out




Перевод: Профессиональный (многоголосый) [лицензия],субтитры: отсутствуют
Формат: HDRip-AVC, MKV, H.264, AC3
Страна: США
Жанр: боевик
Продолжительность: 01:28:00
Режиссер: Джейсон Хьюит / Jason Hewitt
Год выпуска: 2011

В ролях: Вэл Килмер, Винни Джонс, Люк Госс, Фифти Сент, Тэмер Хассан, АннаЛинн МакКорд, Эд Куинн, Райан Доноху, Стефани Онор, Сэм Медина.

Описание: Помощнику шерифа Майклу Сэвиону не раз доводилось участвовать в опасных рейдах и проливать чужую кровь. Но однажды главари одной из местных банд жестоко убивают его брата. Когда равнодушные следователи объявляют дело закрытым за недостатком улик, Майкл решает восстановить справедливость самостоятельно. Его задача — не только покарать всех виновных в смерти брата, но и найти невесту погибшего, исчезнувшую в лабиринте темных улиц, где царят насилие и беспредел. Родная кровь взывает к мести, и от расплаты не уйти никому!.

________

Видео: 1 280x 720 (1:77:7), 24,000 кадр/сек, AVC (х264), , ~ 2 999 Kbps,0.136 bit/pixel
Аудио: 48 kHz, AC3 Dolby Digital, 3/2 (L,C,R,l,r) + LFE ch, ~384 kbps


Автор РИПа:ANDREY22W22
Общее
Уникальный идентификатор: 182358535112376137221156365728151457334 (0x8930F9F15620193F9D91EF5A7E774E36)
Полное имя: E:\рипы\blood_out_[tfile.ru].mkv
Формат: Matroska
Версия формата: Version 2
Размер файла: 2,07 Гбайт
Продолжительность: 1 ч. 28 м.
Общий поток: 3343 Кбит/сек
Дата кодирования: UTC 2011-11-02 18:17:46
Программа кодирования: mkvmerge v4.9.1 ('Ich will') зібрано Aug 10 2011 09:31:20
Библиотека кодирования: libebml v1.2.1 + libmatroska v1.2.0

Видео
Идентификатор: 1
Формат: AVC
Формат/Информация: Advanced Video Codec
Профиль формата:
Параметр CABAC формата: Да
Параметр ReFrames формата: 4 кадра
Идентификатор кодека: V_MPEG4/ISO/AVC
Продолжительность: 1 ч. 28 м.
Битрейт: 2999 Кбит/сек
Ширина: 1280 пикс.
Высота: 720 пикс.
Соотношение сторон: 16:9
Частота кадров: 24,000 кадр/сек
Цветовое пространство: YUV
Подвыборка цветности: 4:2:0
Битовая глубина: 8 бит
Тип развёртки: Прогрессивная
Бит/(Пиксели*Кадры): 0.136
Размер потока: 1,79 Гбайт (87%)
Библиотека кодирования: x264 core 116 r2074 2641b9e
Настройки программы: cabac=1 / ref=3 / deblock=1:-1:-1 / analyse=0x3:0x113 / me=hex / subme=7 / psy=1 / psy_rd=1.00:0.10 / mixed_ref=1 / me_range=16 / chroma_me=1 / trellis=1 / 8x8dct=1 / cqm=0 / deadzone=21,11 / fast_pskip=1 / chroma_qp_offset=-3 / threads=12 / sliced_threads=0 / nr=0 / decimate=1 / interlaced=0 / bluray_compat=0 / constrained_intra=0 / bframes=3 / b_pyramid=2 / b_adapt=1 / b_bias=0 / direct=3 / weightb=1 / open_gop=0 / weightp=2 / keyint=250 / keyint_min=23 / scenecut=40 / intra_refresh=0 / rc_lookahead=40 / rc=2pass / mbtree=1 / bitrate=2999 / ratetol=1.0 / qcomp=0.60 / qpmin=0 / qpmax=69 / qpstep=4 / cplxblur=20.0 / qblur=0.5 / ip_ratio=1.40 / aq=1:1.00

Аудио
Идентификатор: 2
Формат: AC-3
Формат/Информация: Audio Coding 3
Расширение режима: CM (complete main)
Идентификатор кодека: A_AC3
Продолжительность: 1 ч. 28 м.
Вид битрейта: Постоянный
Битрейт: 384 Кбит/сек
Каналы: 6 каналов
Расположение каналов: Front: L C R, Side: L R, LFE
Частота: 48,0 КГц
Битовая глубина: 16 бит
Метод сжатия: С потерями
Размер потока: 243 Мбайт (11%)










Поделиться:




реклама партнёра


Вернуться к началу
 Профиль Отправить личное сообщение  
 
   Похожие торренты   Автор   Торрент   Размер 
В этой теме нет новых непрочитанных сообщений. Джейсон Борн / Jason Bourne [боевик, триллер, 2016] HDRip, Dub [Лицензия]

salma3

1743 | 654

2.18 ГБ

В этой теме нет новых непрочитанных сообщений. Джейсон Борн / Jason Bourne [Боевик, триллер, 2016] HDRip-AVC, Dub [Лицензия]

salma3

308 | 65

1.47 ГБ

В этой теме нет новых непрочитанных сообщений. Джейсон Борн / Jason Bourne [боевик, триллер, 2016] HDRip, Dub [Лицензия]

salma3

3465 | 330

1.46 ГБ

В этой теме нет новых непрочитанных сообщений. Джейсон Борн / Jason Bourne (Пол Гринграсс) [2016, боевик, триллер, HDRip | Лицензия] Dub

marya111

2735 | 278

1.45 ГБ

В этой теме нет новых непрочитанных сообщений. Джейсон Борн / Jason Bourne [Боевик, триллер, 2016] DVD9, Dub

salma3

109 | 52

7.58 ГБ

В этой теме нет новых непрочитанных сообщений. Джейсон Борн / Jason Bourne [боевик, триллер, 2016] HDTVRip, avo

marya111

70 | 2

749.59 МБ

В этой теме нет новых непрочитанных сообщений. Джейсон Борн / Jason Bourne [боевик, триллер, 2016] Blu-ray CEE 1080p, Dub [Лицензия]

salma3

17 | 17

45.32 ГБ


Начать новую тему Ответить на тему  [ 1 сообщение ] 




Для Мосгорсуда, Роскомнадзора и рекламодателей:: mosgorsud-torrent[собачка]yandex.ru