Торрент файл
скачать торрент магнет ссылка Добавлен: 10 янв 2012, 20:23
Размер: 2.53 ГБ
Сидеров: 68
Личеров: 15
Автор

СообщениеДобавлено: 10 янв 2012, 20:23 

Не в сети
Супермодератор
Аватара пользователя
Дата регистрации:
11 апр 2010, 18:10
Спасибо: 5799 / 7
Сообщения: 56779
Профессионал / Le professionnel


Перевод: Профессиональный (полное дублирование), cубтитры: Русские (полные, отключаемые)
Формат: HDRip, MKV, H.264, AC3
Страна: Франция
Режиссер: Жорж Лотнер
Жанр: боевик, триллер, драма, криминал
Продолжительность: 01:47:52
Год выпуска: 1981
В ролях: Жан-Поль Бельмондо, Жан Дезайи, Робер Оссейн, Мишель Бон, Сирил Клер, Жан-Луи Ришар, Сидики Бакаба, Пьер Сентон, Мари-Кристин Декуар, Бернар-Пьер Доннадьё
Описание: Убить президента африканской республики. Такое задание получил секретный агент Жослен Бомон. Внезапно политика изменилась, и французское правительство сдает героя африканским властям. Сбежав с каторги, волк-одиночка возвращается на родину с одной целью: довести задание до конца. А чернокожий лидер как раз приезжает во Францию.

Видео: 1200x720 (1,674:1), 24,000 fps, MPEG4 AVC (х264), ~2400 kbps avg, 0.116 bit/pixel
Аудио#1:Русский: 48 kHz,AC-3, 2 ch, ~192.00 kbps avg [Профессиональный (полное дублирование)]
Аудио#2:Русский: 48 kHz,AC-3, 2 ch, ~192.00 kbps avg [Профессиональный (многоголосый, закадровый)( к.ст им.Горького)]
Аудио#3:Французский: 48 kHz,AC-3, 2 ch, ~192.00 kbps avg [Внешним файлом: Оригинал]
Аудио#4:Русский: 48 kHz,AC-3, 2 ch, ~192.00 kbps avg [Внешним файлом: Профессиональный (многоголосый, закадровый)(НТВ)]
Аудио#5:Украинский: 48 kHz,AC-3, 2 ch, ~192.00 kbps avg [Внешним файлом: Профессиональный (многоголосый, закадровый)]


Автор РИПа:
Общее
Уникальный идентификатор : 177322098155112339629182978267347266384 (0x8566FE6DDC7DEC7596B3F35B416DAB50)
Полное имя : f:\Downloads\le_professionnel_[tfile.ru]\le_professionnel_[tfile.ru].mkv
Формат : Matroska
Размер файла : 2,10 Гбайт
Продолжительность : 1 ч. 47 м.
Общий поток : 2783 Кбит/сек
Название фильма : Le professionnel (1981) - Release for HDCLUB
Дата кодирования : UTC 2011-11-04 04:30:33
Программа кодирования : mkvmerge v4.6.0 ('Still Crazy After All These Years') сборка от Mar 10 2011 02:50:32
Библиотека кодирования : libebml v1.2.0 + libmatroska v1.1.0

Видео
Идентификатор : 1
Формат : AVC
Формат/Информация : Advanced Video Codec
Профиль формата :
Параметр CABAC формата : Да
Параметр ReFrames формата : 3 кадра
Параметры GOP формата : M=1, N=23
Режим смешивания : Header stripping
Идентификатор кодека : V_MPEG4/ISO/AVC
Продолжительность : 1 ч. 47 м.
Битрейт : 2400 Кбит/сек
Ширина : 1200 пикс.
Высота : 720 пикс.
Соотношение сторон : 1,674
Соотношение сторон в оригинале : 1,673
Режим частоты кадров : Переменный
Частота кадров : 24,000 кадр/сек
Цветовое пространство : YUV
Подвыборка цветности : 4:2:0
Битовая глубина : 8 бит
Тип развёртки : Прогрессивная
Бит/(Пиксели*Кадры) : 0.116
Размер потока : 1,77 Гбайт (84%)
Библиотека кодирования : x264 core 116 r2019M 9cc407d
Настройки программы : cabac=1 / ref=3 / deblock=1:-1:-1 / analyse=0x3:0x133 / me=hex / subme=7 / psy=1 / psy_rd=1.00:0.15 / mixed_ref=1 / me_range=16 / chroma_me=1 / trellis=1 / 8x8dct=1 / cqm=0 / deadzone=21,11 / fast_pskip=1 / chroma_qp_offset=-3 / threads=8 / sliced_threads=0 / nr=0 / decimate=1 / interlaced=0 / bluray_compat=0 / constrained_intra=0 / bframes=3 / b_pyramid=1 / b_adapt=2 / b_bias=0 / direct=3 / weightb=1 / open_gop=0 / weightp=2 / keyint=240 / keyint_min=24 / scenecut=40 / intra_refresh=0 / rc_lookahead=40 / rc=abr / mbtree=1 / bitrate=2400 / ratetol=1.0 / qcomp=0.60 / qpmin=10 / qpmax=51 / qpstep=4 / vbv_maxrate=31250 / vbv_bufsize=31250 / nal_hrd=none / ip_ratio=1.40 / aq=1:1.00
Язык : French

Аудио #1
Идентификатор : 2
Формат : AC-3
Формат/Информация : Audio Coding 3
Расширение режима : CM (complete main)
Режим смешивания : Header stripping
Идентификатор кодека : A_AC3
Продолжительность : 1 ч. 47 м.
Вид битрейта : Постоянный
Битрейт : 192 Кбит/сек
Каналы : 2 канала
Расположение каналов : Front: L R
Частота : 48,0 КГц
Битовая глубина : 16 бит
Метод сжатия : С потерями
Размер потока : 148 Мбайт (7%)
Заголовок : DUB
Язык : Russian

Аудио #2
Идентификатор : 3
Формат : AC-3
Формат/Информация : Audio Coding 3
Расширение режима : CM (complete main)
Режим смешивания : Header stripping
Идентификатор кодека : A_AC3
Продолжительность : 1 ч. 47 м.
Вид битрейта : Постоянный
Битрейт : 192 Кбит/сек
Каналы : 2 канала
Расположение каналов : Front: L R
Частота : 48,0 КГц
Битовая глубина : 16 бит
Метод сжатия : С потерями
Размер потока : 148 Мбайт (7%)
Заголовок : MVO
Язык : Russian

Текст
Идентификатор : 4
Формат : UTF-8
Идентификатор кодека : S_TEXT/UTF8
Идентификатор кодека/Информация : UTF-8 Plain Text
Язык : Russian

Меню
00:00:00.000 : fr:Chapter 1
00:12:39.958 : fr:Chapter 2
00:28:55.250 : fr:Chapter 3
00:41:54.625 : fr:Chapter 4
00:54:46.417 : fr:Chapter 5
01:06:59.000 : fr:Chapter 6
01:21:16.667 : fr:Chapter 7
01:33:52.500 : fr:Chapter 8


















Поделиться:




реклама партнёра


Вернуться к началу
 Профиль Отправить личное сообщение  
 
   Похожие торренты   Автор   Торрент   Размер 
В этой теме нет новых непрочитанных сообщений. Команда Шарки / Sharky's Machine [боевик, триллер, драма, криминал, 1981] BDRemux 1080p, Mvo+Avo+Sub

salma3

20 | 18

29.81 ГБ

В этой теме нет новых непрочитанных сообщений. Око за око / An Eye for an Eye [Боевик, триллер, криминал, 1981] BDRip-AVC, Mvo

salma3

19 | 0

1.46 ГБ

В этой теме нет новых непрочитанных сообщений. Око за око / An Eye for an Eye [боевик, триллер, криминал, приключения, 1981] BDRip, Mvo+Dvo

salma3

2 | 0

2.18 ГБ

В этой теме нет новых непрочитанных сообщений. Око за око / An Eye for an Eye [боевик, триллер, криминал, 1981] BDRip 1080p, 4Avo+Mvo+Sub

salma3

22 | 3

8.59 ГБ

В этой теме нет новых непрочитанных сообщений. Ночные ястребы / Nighthawks [Боевик, триллер, криминал, 1981] HDTVRip-AVC, Mvo+3Avo+Sub

salma3

0 | 0

2.22 ГБ

В этой теме нет новых непрочитанных сообщений. Чужая земля / Outland [ фантастика, боевик, триллер, криминал, 1981] BDRip 1080p, Dub+Dvo+Sub

salma3

56 | 6

7.75 ГБ

В этой теме нет новых непрочитанных сообщений. Ночные ястребы / Nighthawks [Боевик, триллер, криминал, 1981] HDTVRip 720p, Mvo+3Avo+Sub

salma3

2 | 1

3.82 ГБ


Начать новую тему Ответить на тему  [ 1 сообщение ] 




Для Мосгорсуда, Роскомнадзора и рекламодателей:: mosgorsud-torrent[собачка]yandex.ru