Торрент файл
скачать торрент магнет ссылка Добавлен: 10 янв 2012, 20:19
Размер: 2.19 ГБ
Сидеров: 49
Личеров: 11
Автор

СообщениеДобавлено: 10 янв 2012, 20:19 

Не в сети
Супермодератор
Аватара пользователя
Дата регистрации:
11 апр 2010, 18:10
Спасибо: 5801 / 7
Сообщения: 56779
Гонки Пушечное ядро / The Cannonball Run


Перевод: Профессиональный (многоголосый), cубтитры: английские
Формат: HDRip-AVC, mkv, H.264, AC3
Страна: США, Гонконг
Режиссер: Хэл Нидэм
Жанр: боевик, комедия
Продолжительность: 1:35:35
Год выпуска: 1981
В ролях: Берт Рейнолдс, Роджер Мур, Фарра Фосетт, Дом ДеЛуис, Дин Мартин, Сэмми Дэвис мл., Джек Илэм, Эдриенн Барбо, Терри Брэдшоу, Джеки Чан

Описание: Приз в кругленькую сумму получит тот из участников транснациональной автомобильной гонки, кто первым придет к финишу. Гонки, как обычно, без правил, и участвуют в них самые отчаянные и бесшабашные гонщики мира. Главное — стать первым любой ценой.




Видео: 1024x576 (16:9), 23.976 fps, AVC MPEG4 (x264), , ~1990 kbps avg, 0.141 bit/pixel
Аудио #1: русский 48 kHz, AC3, 2 ch, (Front: L R), ~192 kbps avg [Профессиональный (двухголосый закадровый)]
Аудио #2: русский 48 kHz, AC3, 2 ch, (Front: L R), ~192 kbps avg [Профессиональный (многоголосый закадровый)]
Аудио #3: русский 48 kHz, AC3, 6 ch, (Front: L C R, Side: L R, LFE), ~448 kbps avg [авторский (одноголосый Юрий Живов)]
Аудио #4: английский 48 kHz, AC3, 6 ch, (Front: L C R, Side: L R, LFE), ~448 kbps avg [Оригинал]

Доп. информация: Проигрывается любыми mkv плеерами. Оригинальные главы сохранены. За русский звук спасибо Diablo. Дорожка №3 получена наложением чистого голоса на центр декодированного DTS-HD. Конвертирована в AC3 для этого рипа. За чистый голос Михалева спасибо хдклаб.

Релиз группы: rip by mimigen

General
Unique ID: 233197277417687969091408339520593029590 (0xAF702975BD9D764698AB8217CBDF69D6)
Complete name: C:\*****\cannonball_run_[tfile.ru].mkv
Format: Matroska
Format version: Version 2
File size: 2.19 GiB
Duration: 1h 35mn
Overall bit rate: 3 272 Kbps
Movie name: Гонки "Пушечное ядро" (rip by mimigen)
Encoded date: UTC 2011-11-22 05:33:45
Writing application: mkvmerge v4.0.0 ('The Stars were mine') сборка от Jun6 2010 16:18:42
Writing library: libebml v1.0.0 + libmatroska v1.0.0

Video
ID: 1
Format: AVC
Format/Info: Advanced Video Codec
Format profile:
Format settings, CABAC: Yes
Format settings, ReFrames: 10 frames
Codec ID: V_MPEG4/ISO/AVC
Duration: 1h 35mn
Bit rate: 1 990 Kbps
Width: 1 024 pixels
Height: 576 pixels
Display aspect ratio: 16:9
Frame rate: 23.976 fps
Color space: YUV
Chroma subsampling: 4:2:0
Bit depth: 8 bits
Scan type: Progressive
Bits/(Pixel*Frame): 0.141
Stream size: 1.29 GiB (59%)
Writing library: x264 core 116 r2074 2641b9e
Encoding settings: cabac=1 / ref=11 / deblock=1:-3:-3 / analyse=0x3:0x113 / me=esa / subme=10 / psy=1 / psy_rd=1.00:0.00 / mixed_ref=1 / me_range=24 / chroma_me=1 / trellis=2 / 8x8dct=1 / cqm=0 / deadzone=21,11 / fast_pskip=0 / chroma_qp_offset=-2 / threads=4 / sliced_threads=0 / slices=4 / nr=0 / decimate=0 / interlaced=0 / bluray_compat=0 / constrained_intra=0 / bframes=12 / b_pyramid=1 / b_adapt=2 / b_bias=0 / direct=3 / weightb=1 / open_gop=0 / weightp=0 / keyint=24 / keyint_min=2 / scenecut=40 / intra_refresh=0 / rc_lookahead=24 / rc=2pass / mbtree=1 / bitrate=1990 / ratetol=1.0 / qcomp=0.60 / qpmin=10 / qpmax=51 / qpstep=4 / cplxblur=20.0 / qblur=0.5 / ip_ratio=1.40 / aq=2:1.00
Language: English

Audio #1
ID: 2
Format: AC-3
Format/Info: Audio Coding 3
Mode extension: CM (complete main)
Codec ID: A_AC3
Duration: 1h 35mn
Bit rate mode: Constant
Bit rate: 192 Kbps
Channel(s): 2 channels
Channel positions: Front: L R
Sampling rate: 48.0 KHz
Bit depth: 16 bits
Compression mode: Lossy
Stream size: 131 MiB (6%)
Title: DVO [Котов]
Language: Russian

Audio #2
ID: 3
Format: AC-3
Format/Info: Audio Coding 3
Mode extension: CM (complete main)
Codec ID: A_AC3
Duration: 1h 35mn
Bit rate mode: Constant
Bit rate: 192 Kbps
Channel(s): 2 channels
Channel positions: Front: L R
Sampling rate: 48.0 KHz
Bit depth: 16 bits
Compression mode: Lossy
Stream size: 131 MiB (6%)
Title: MVO [Прозоровский]
Language: Russian

Audio #3
ID: 4
Format: AC-3
Format/Info: Audio Coding 3
Mode extension: CM (complete main)
Codec ID: A_AC3
Duration: 1h 35mn
Bit rate mode: Constant
Bit rate: 448 Kbps
Channel(s): 6 channels
Channel positions: Front: L C R, Side: L R, LFE
Sampling rate: 48.0 KHz
Bit depth: 16 bits
Compression mode: Lossy
Stream size: 306 MiB (14%)
Title: AVO [Алексей Михалев]
Language: Russian

Audio #4
ID: 5
Format: AC-3
Format/Info: Audio Coding 3
Mode extension: CM (complete main)
Codec ID: A_AC3
Duration: 1h 35mn
Bit rate mode: Constant
Bit rate: 448 Kbps
Channel(s): 6 channels
Channel positions: Front: L C R, Side: L R, LFE
Sampling rate: 48.0 KHz
Bit depth: 16 bits
Compression mode: Lossy
Stream size: 306 MiB (14%)
Title: оригинальная
Language: English

Text
ID: 6
Format: UTF-8
Codec ID: S_TEXT/UTF8
Codec ID/Info: UTF-8 Plain Text
Language: English

Menu #1
00:00:00.000: en:00:00:00.000
00:08:10.115: en:00:08:10.115
00:16:56.515: en:00:16:56.515
00:23:31.619: en:00:23:31.619
00:31:41.775: en:00:31:41.775
00:42:56.491: en:00:42:56.491
00:52:17.176: en:00:52:17.176
01:02:39.839: en:01:02:39.839
01:09:48.893: en:01:09:48.893
01:16:45.684: en:01:16:45.684
01:25:53.690: en:01:25:53.690
01:32:13.695: en:01:32:13.695

Menu #2
00:00:00.000: en:00:00:00.000
00:08:10.115: en:00:08:10.115
00:16:56.515: en:00:16:56.515
00:23:31.619: en:00:23:31.619
00:31:41.775: en:00:31:41.775
00:42:56.491: en:00:42:56.491
00:52:17.176: en:00:52:17.176
01:02:39.839: en:01:02:39.839
01:09:48.893: en:01:09:48.893
01:16:45.684: en:01:16:45.684
01:25:53.690: en:01:25:53.690
01:32:13.695: en:01:32:13.695












Поделиться:




реклама партнёра


Вернуться к началу
 Профиль Отправить личное сообщение  
 
   Похожие торренты   Автор   Торрент   Размер 
В этой теме нет новых непрочитанных сообщений. Бешеные гонки / Drive Hard (Брайан Тренчард-Смит) [боевик, криминал, комедия, 2014] HDRip, mvo [официльное]

Dracon

2519 | 162

1.37 ГБ

В этой теме нет новых непрочитанных сообщений. Discovery. Уличные гонки / Street Outlaws [04x01-02 из 10] [2014, Документальный, приключения, гонки, HDTV 1080]

Nickolas3435

6 | 7

4.58 ГБ

В этой теме нет новых непрочитанных сообщений. Гонки по-итальянски / Rosso Mille Miglia [приключения, мелодрама, детектив, комедия, 2015] WEB-DLRip, Mvo

salma3

1123 | 137

1.37 ГБ

В этой теме нет новых непрочитанных сообщений. Гонки по-итальянски / Rosso Mille Miglia [приключения, мелодрама, детектив, комедия, 2015] WEB-DLRip-AVC, Mvo

marya111

0 | 0

2.03 ГБ

В этой теме нет новых непрочитанных сообщений. Большие гонки / The Great Race [Мелодрама,Комедия,Приключения, 1965] BDRip 720p, Dub+2Mvo+Sub

salma3

1 | 2

7.18 ГБ

В этой теме нет новых непрочитанных сообщений. Гонки по-итальянски / Rosso Mille Miglia [Комедия, приключения, мелодрама, детектив, 2015] WEB-DLRip, mvo

marya111

54 | 9

746.98 МБ

В этой теме нет новых непрочитанных сообщений. Око за око / An Eye for an Eye [боевик, триллер, криминал, приключения, 1981] BDRip, Mvo+Dvo

salma3

2 | 0

2.18 ГБ


Начать новую тему Ответить на тему  [ 1 сообщение ] 




Для Мосгорсуда, Роскомнадзора и рекламодателей:: mosgorsud-torrent[собачка]yandex.ru