Торрент файл
скачать торрент магнет ссылка Добавлен: 10 янв 2012, 20:19
Размер: 2.17 ГБ
Сидеров: 65
Личеров: 11
Автор

СообщениеДобавлено: 10 янв 2012, 20:19 

Не в сети
Супермодератор
Аватара пользователя
Дата регистрации:
11 апр 2010, 18:10
Спасибо: 5995 / 7
Сообщения: 56685
[b]Багровые реки 2: Ангелы апокалипсиса / Les rivieres pourpres II - Les anges de l'apocalypse[/b]



Перевод: Профессиональный (полное дублирование)
Субтитры: отсутствуют
Формат: HDRip-AVC, MKV, H.264, AC3

Страна:Франция, Великобритания, Италия

Режиссер: Оливье Даан
Жанр: боевик, триллер, криминал
Продолжительность: 01:39:06
Год выпуска: 2004

В ролях: Жан Рено, Бенуа Мажимель, Кристофер Ли, Камилль Натта, Джонни Халлидей, Габриель Лазюр, Огустен Легран, Серж Рябукин, Андре Пенверн, Франсис Рено.

Описание: Капитан Пьер Ниман — полицейский. Чертовски хороший полицейский. Один из лучших. Его работа требуется в особенных случаях. Он умный и храбрый, за словом в карман не полезет. Он любит работать один, но зачастую ему требуется напарник, а то и два. Он ненавидит собак, но имеет свою собственную — йоркширского терьера.

Ему доставляет радость воздать по заслугам бандитам и убийцам, тем более, что они верят в свою безнаказанность, пока не перейдут дорогу Пьеру Ниману. Ниман расследует дело о человеке, замурованном в стену с загадочными знаками. В это время Реда, молодой капитан полиции, находит у дверей церкви полумёртвого двойника Иисуса Христа. Реда полагает, что эта история как-то связана с расследованием Нимана, учеником которого он был в полицейской школе.

В округе продолжаются убийства: таинственные монахи, обладающие сверхъестественной силой, убивают случайных встречных и исчезают бесследно. При помощи Мари, специалистки по истории религий, Ниман и Реда пытаются найти ответы на все вопросы…




Видео: 1024x432 (2.35:1), 23.976 fps, AVC MPEG-4 , ~2394 kbps avg, 0.226 bit/pixel
Аудио #1: русский48 kHz, AC3 Dolby Digital, 3/2 (L,C,R,l,r) + LFE ch, ~384 kbps avg [Профессиональный (полное дублирование)]
Аудио #2: русский48 kHz, AC3 Dolby Digital, 3/2 (L,C,R,l,r) + LFE ch, ~384 kbps avg [Авторский (А.Гаврилов)]

Релиз группы

Рип от: S.I.D __


Общее
Уникальный идентификатор: 247335983025779274109057759791042857910 (0xBA132D776A455AF782F7428D333D0BB6)
Полное имя: D:\Les.Rivieres.Pourpres.II.Les.Anges.De.Lapocalypse.2004.D.HDRip.mkv
Формат: Matroska
Размер файла: 2,17 Гбайт
Продолжительность: 1 ч. 39 м.
Общий поток: 3129 Кбит/сек
Название фильма: Les.Rivieres.Pourpres.II.Les.Anges.De.Lapocalypse.S.I.D
Дата кодирования: UTC 2011-11-26 14:46:46
Программа кодирования: mkvmerge v2.9.0 ('Moanin'') built on May 22 2009 17:46:31
Библиотека кодирования: libebml v0.7.7 + libmatroska v0.8.1

Видео
Идентификатор: 1
Формат: AVC
Формат/Информация: Advanced Video Codec
Профиль формата:
Параметр CABAC формата: Да
Параметр ReFrames формата: 8 кадров
Параметры GOP формата: M=1, N=48
Идентификатор кодека: V_MPEG4/ISO/AVC
Продолжительность: 1 ч. 39 м.
Битрейт: 2394 Кбит/сек
Ширина: 1024 пикс.
Высота: 432 пикс.
Соотношение сторон: 2,35:1
Частота кадров: 23,976 кадр/сек
Цветовое пространство: YUV
Подвыборка цветности: 4:2:0
Битовая глубина: 8 бит
Тип развёртки: Прогрессивная
Бит/(Пиксели*Кадры): 0.226
Размер потока: 1,59 Гбайт (73%)
Библиотека кодирования: x264 core 118 r2085 8a62835
Настройки программы: cabac=1 / ref=8 / deblock=1:0:0 / analyse=0x3:0x111 / me=umh / subme=0 / psy=1 / psy_rd=1.00:0.10 / mixed_ref=1 / me_range=16 / chroma_me=1 / trellis=2 / 8x8dct=1 / cqm=0 / deadzone=21,11 / fast_pskip=0 / chroma_qp_offset=-1 / threads=3 / sliced_threads=0 / nr=0 / decimate=1 / interlaced=0 / bluray_compat=0 / constrained_intra=0 / bframes=8 / b_pyramid=2 / b_adapt=2 / b_bias=0 / direct=1 / weightb=1 / open_gop=0 / weightp=2 / keyint=250 / keyint_min=23 / scenecut=40 / intra_refresh=0 / rc_lookahead=40 / rc=abr / mbtree=1 / bitrate=2394 / ratetol=1.0 / qcomp=0.60 / qpmin=0 / qpmax=69 / qpstep=4 / ip_ratio=1.40 / aq=1:1.00
Язык: French

Аудио #1
Идентификатор: 2
Формат: AC-3
Формат/Информация: Audio Coding 3
Расширение режима: CM (complete main)
Идентификатор кодека: A_AC3
Продолжительность: 1 ч. 39 м.
Вид битрейта: Постоянный
Битрейт: 384 Кбит/сек
Каналы: 6 каналов
Расположение каналов: Front: L C R, Side: L R, LFE
Частота: 48,0 КГц
Битовая глубина: 16 бит
Метод сжатия: С потерями
Размер потока: 272 Мбайт (12%)
Заголовок: Дубляж
Язык: Russian

Аудио #2
Идентификатор: 3
Формат: AC-3
Формат/Информация: Audio Coding 3
Расширение режима: CM (complete main)
Идентификатор кодека: A_AC3
Продолжительность: 1 ч. 39 м.
Вид битрейта: Постоянный
Битрейт: 384 Кбит/сек
Каналы: 6 каналов
Расположение каналов: Front: L C R, Side: L R, LFE
Частота: 48,0 КГц
Битовая глубина: 16 бит
Метод сжатия: С потерями
Размер потока: 272 Мбайт (12%)
Заголовок: Гаврилов
Язык: Russian










Поделиться:



Вернуться к началу
 Профиль Отправить личное сообщение  
 
   Похожие торренты   Автор   Торрент   Размер 
В этой теме нет новых непрочитанных сообщений. Багровые реки / Les rivieres pourpres [триллер, криминал, детектив, 2000] BDRip 1080p, Dub

salma3

11 | 2

13.54 ГБ

В этой теме нет новых непрочитанных сообщений. Мы с братками против зомби апокалипсиса / Me And My Mates vs The Zombie Apocalypse [ужасы, комедия, 2015] DVDRip, Avo

salma3

266 | 18

1.37 ГБ

В этой теме нет новых непрочитанных сообщений. Дикие ангелы / The Wild Angels [боевик, триллер, драма, 1966] HDRip, Mvo

salma3

0 | 0

1.09 ГБ

В этой теме нет новых непрочитанных сообщений. Ангелы Чарли 2: Только вперед / Charlie's Angels: Full Throttle [боевик, комедия, криминал, 2003] HDRip-AVC, Dub

salma3

103 | 44

745.51 МБ

В этой теме нет новых непрочитанных сообщений. Сотовый / Cellular [боевик, триллер, криминал, 2004] HDRip-AVC, Dub

salma3

24 | 8

745.37 МБ

В этой теме нет новых непрочитанных сообщений. Ангелы Чарли / Charlie's Angels [боевик, триллер, комедия, криминал, 2000] WEB-DL 1080p, Dub [Open Matte]

salma3

35 | 24

9.9 ГБ

В этой теме нет новых непрочитанных сообщений. Излучина реки / Bend of the River [боевик, приключения, вестерн, 1951] HDRip, Mvo

salma3

0 | 1

1.45 ГБ


Начать новую тему Ответить на тему  [ 1 сообщение ] 




Для Мосгорсуда, Роскомнадзора и рекламодателей:: mosgorsud-torrent[собачка]yandex.ru
cron