Торрент файл
скачать торрент магнет ссылка Добавлен: 10 янв 2012, 20:18
Размер: 1.49 ГБ
Сидеров: 580
Личеров: 18
Автор

СообщениеДобавлено: 10 янв 2012, 20:18 

Не в сети
Супермодератор
Аватара пользователя
Дата регистрации:
11 апр 2010, 18:10
Спасибо: 5801 / 7
Сообщения: 56779
[b]Коломбиана / Colombiana[/b]



Перевод: Профессиональный (одноголосый) (В.Замез)
Субтитры: отсутствуют
Формат: HDRip-AVC, MKV, H.264, AC3

Страна:США, Франция

Режиссер: Оливье Мегатон
Жанр: боевик, триллер, драма, приключения
Продолжительность: 01:43:27
Год выпуска: 2011

В ролях: Зои Салдана, Амендла Стенберг, Майкл Вартан, Клифф Кёртис, Каллум Блу, Жорди Молья, Макс Мартини, Ленни Джеймс, Грэм МакТавиш, Моника Акоста.

Описание: Кат было всего десять, когда на ее глазах неизвестные жестоко убили ее родителей. Девочка сумела убежать от бандитов и найти убежище в Чикаго у своего дяди. Теперь Кат профессиональный убийца. Во что бы то ни стало она должна распутать клубок давнего преступления и отомстить за смерть родителей. Все следы ведут к колумбийскому наркобарону Дону Лусиа. Единственная нить, соединяющая девушку-убийцу с миром обычных людей — это ее возлюбленный, который не догадывается, чем на самом деле занимается его подружка…



Видео: 1024x432 (2.35:1), 23.976 fps, AVC MPEG-4 , ~1681 kbps avg, 0.158 bit/pixel
Аудио: 48 kHz, AC3 Dolby Digital, 3/2 (L,C,R,l,r) + LFE ch, ~384 kbps avg

Релиз группы

Рип от: S.I.D __


Общее
Уникальный идентификатор: 229215826897452207527870305230022243037 (0xAC715CCB282B462890C31E5527DFF2DD)
Полное имя: D:\Мои рипы\Kolombiana.2011.P1.HDRip.mkv
Формат: Matroska
Размер файла: 1,49 Гбайт
Продолжительность: 1 ч. 43 м.
Общий поток: 2061 Кбит/сек
Название фильма: Kolombiana.S.I.D
Дата кодирования: UTC 2011-12-03 12:31:28
Программа кодирования: mkvmerge v2.9.0 ('Moanin'') built on May 22 2009 17:46:31
Библиотека кодирования: libebml v0.7.7 + libmatroska v0.8.1

Видео
Идентификатор: 1
Формат: AVC
Формат/Информация: Advanced Video Codec
Профиль формата:
Параметр CABAC формата: Да
Параметр ReFrames формата: 8 кадры
Идентификатор кодека: V_MPEG4/ISO/AVC
Продолжительность: 1 ч. 43 м.
Битрейт: 1681 Кбит/сек
Ширина: 1024 пикс.
Высота: 432 пикс.
Соотношение сторон: 2,35:1
Частота кадров: 23,976 кадр/сек
Цветовое пространство: YUV
Подвыборка цветности: 4:2:0
Битовая глубина: 8 бит
Тип развёртки: Прогрессивная
Бит/(Пиксели*Кадры): 0.158
Размер потока: 1,18 Гбайт (79%)
Библиотека кодирования: x264 core 119 r2106 07efeb4
Настройки программы: cabac=1 / ref=8 / deblock=1:-1:-1 / analyse=0x3:0x111 / me=umh / subme=0 / psy=1 / psy_rd=1.00:0.10 / mixed_ref=1 / me_range=16 / chroma_me=1 / trellis=2 / 8x8dct=1 / cqm=0 / deadzone=21,11 / fast_pskip=0 / chroma_qp_offset=-1 / threads=6 / sliced_threads=0 / nr=0 / decimate=1 / interlaced=0 / bluray_compat=0 / constrained_intra=0 / bframes=8 / b_pyramid=2 / b_adapt=2 / b_bias=0 / direct=1 / weightb=1 / open_gop=0 / weightp=2 / keyint=250 / keyint_min=23 / scenecut=40 / intra_refresh=0 / rc_lookahead=50 / rc=abr / mbtree=1 / bitrate=1681 / ratetol=1.0 / qcomp=0.60 / qpmin=0 / qpmax=69 / qpstep=4 / ip_ratio=1.40 / aq=1:1.00
Язык: English

Аудио
Идентификатор: 2
Формат: AC-3
Формат/Информация: Audio Coding 3
Расширение режима: CM (complete main)
Идентификатор кодека: A_AC3
Продолжительность: 1 ч. 43 м.
Вид битрейта: Постоянный
Битрейт: 384 Кбит/сек
Канал(ы): 6 канала(ов)
Расположение каналов: Front: L C R, Side: L R, LFE
Частота: 48,0 КГц
Битовая глубина: 16 бит
Метод сжатия: С потерями
Размер потока: 284 Мбайт (19%)
Заголовок: В.Замез
Язык: Russian










Поделиться:




реклама партнёра


Вернуться к началу
 Профиль Отправить личное сообщение  
 
   Похожие торренты   Автор   Торрент   Размер 
В этой теме нет новых непрочитанных сообщений. Коломбиана / Colombiana (Оливье Мегатон) [2011, боевик, триллер, драма, криминал, BDRip 720p] Dub

Nickolas3435

81 | 9

7.29 ГБ

В этой теме нет новых непрочитанных сообщений. Заложница 3 / Taken 3 (Оливье Мегатон) [боевик, триллер, драма, криминал, 2012] HDRip, dub [чистый звук / EXTENDED]

Dracon

7 | 4

1.37 ГБ

В этой теме нет новых непрочитанных сообщений. Заложница 3 /  Taken 3 (Оливье Мегатон) [Боевик, Триллер, 2014] CAMRip, dub

Dracon

110 | 16

1.37 ГБ

В этой теме нет новых непрочитанных сообщений. Заложница 3 / Taken 3 (Оливье Мегатон) [Боевик, Триллер, 2014] HDTVRip, dub [Чистый звук]

Dracon

29 | 3

1.37 ГБ

В этой теме нет новых непрочитанных сообщений. Заложница 3 / Taken 3 (Оливье Мегатон) [Боевик, Триллер, 2014] HDTVRip, dub [Чистый звук]

Dracon

5 | 3

700.54 МБ

В этой теме нет новых непрочитанных сообщений. Заложница 3 / Taken 3 (Оливье Мегатон) [Боевик, Триллер, 2014] HDTVRip, dub [Чистый звук]

Dracon

114 | 4

2.05 ГБ

В этой теме нет новых непрочитанных сообщений. Заложница 3 / Taken 3 (Оливье Мегатон) [Боевик, Триллер, 2014] HDTVRip, dub [Звук с CAMRip]

Dracon

951 | 7

1.37 ГБ


Начать новую тему Ответить на тему  [ 1 сообщение ] 




Для Мосгорсуда, Роскомнадзора и рекламодателей:: mosgorsud-torrent[собачка]yandex.ru