Торрент файл
скачать торрент магнет ссылка Добавлен: 10 янв 2012, 20:16
Размер: 2.14 ГБ
Сидеров: 100
Личеров: 14
Автор

СообщениеДобавлено: 10 янв 2012, 20:16 

Не в сети
Супермодератор
Аватара пользователя
Дата регистрации:
11 апр 2010, 18:10
Спасибо: 5801 / 7
Сообщения: 56779
Детоксикация / D-Tox


Перевод: Профессиональный (многоголосый, закадровый), cубтитры: Русские, Английские (полные, отключаемые)
Формат: HDRip, MKV, H.264, AC3
Страна: США, Германия
Режиссер: Джим Гиллеспи
Жанр: ужасы, боевик, триллер, драма, криминал, детектив
Продолжительность: 01:35:44
Год выпуска: 2002
В ролях: Сильвестр Сталлоне, Чарльз С. Даттон, Полли Уокер, Крис Кристофферсон, Миф, Кристофер Фулфорд, Джеффри Райт, Том Беренджер, Стивен Лэнг, Алан С. Петерсон
Описание: Агент ФБР Джейк Малой стал свидетелем зверского убийства. Джейку так и не удалось справиться с пережитым шоком: он начинает искать забвение в алкоголе. Пытаясь вернуться к нормальной жизни, агент соглашается пройти детоксикацию в закрытой клинике для «опустившихся» полицейских. Клиника отрезана от внешнего мира и расположена глубоко в заснеженном лесу. Здесь проходит курс лечения разношерстная группа пациентов-служителей закона «с отклонениями».
Однако эта компания так и не успеет излечиться от пагубных пристрастий: их пребывание в клинике превращается в жуткий и кровавый кошмар. Мрачные стены лечебницы содрогаются от невероятных по своей жестокости убийств. Кто-то начинает умерщвлять обитателей клиники одного за другим. И, что самое страшное, агент Малой узнает почерк убийцы…


Видео: 1280x544 (2,35:1), 23,976 fps, MPEG4 AVC (х264), ~2800 kbps avg, 0.168 bit/pixel
Аудио: 48 kHz,AC-3, 6 ch, ~448.00 kbps avg


Автор РИПа:
Общее
Уникальный идентификатор : 191747795806424870395047608613554906154 (0x9041483C6243653F9D7DEC55D63C642A)
Полное имя : f:\Downloads\d_tox_[tfile.ru].mkv
Формат : Matroska
Версия формата : Version 2
Размер файла : 2,14 Гбайт
Продолжительность : 1 ч. 35 м.
Общий поток : 3198 Кбит/сек
Дата кодирования : UTC 2011-12-12 22:28:21
Программа кодирования : mkvmerge v4.6.0 ('Still Crazy After All These Years') сборка от Mar 10 2011 02:50:32
Библиотека кодирования : libebml v1.2.0 + libmatroska v1.1.0

Видео
Идентификатор : 1
Формат : AVC
Формат/Информация : Advanced Video Codec
Профиль формата :
Параметр CABAC формата : Да
Параметр ReFrames формата : 3 кадра
Режим смешивания : Header stripping
Идентификатор кодека : V_MPEG4/ISO/AVC
Продолжительность : 1 ч. 35 м.
Битрейт : 2800 Кбит/сек
Ширина : 1280 пикселей
Высота : 544 пикселя
Соотношение сторон : 2,35:1
Режим частоты кадров : Переменный
Частота кадров : 23,976 кадра/сек
Цветовое пространство : YUV
Субдискретизация насыщенности : 4:2:0
Битовая глубина : 8 бит
Тип развёртки : Прогрессивная
Бит/(Пиксели*Кадры) : 0.168
Размер потока : 1,80 Гбайт (84%)
Библиотека кодирования : x264 core 116 r2019M 9cc407d
Настройки программы : cabac=1 / ref=3 / deblock=1:-1:-1 / analyse=0x3:0x133 / me=hex / subme=7 / psy=1 / psy_rd=1.00:0.15 / mixed_ref=1 / me_range=16 / chroma_me=1 / trellis=1 / 8x8dct=1 / cqm=0 / deadzone=21,11 / fast_pskip=1 / chroma_qp_offset=-3 / threads=8 / sliced_threads=0 / nr=0 / decimate=1 / interlaced=0 / bluray_compat=0 / constrained_intra=0 / bframes=3 / b_pyramid=1 / b_adapt=2 / b_bias=0 / direct=3 / weightb=1 / open_gop=0 / weightp=2 / keyint=230 / keyint_min=23 / scenecut=40 / intra_refresh=0 / rc_lookahead=40 / rc=abr / mbtree=1 / bitrate=2800 / ratetol=1.0 / qcomp=0.60 / qpmin=10 / qpmax=51 / qpstep=4 / vbv_maxrate=31250 / vbv_bufsize=31250 / nal_hrd=none / ip_ratio=1.40 / aq=1:1.00
Default : Да
Forced : Нет

Аудио
Идентификатор : 2
Формат : AC-3
Формат/Информация : Audio Coding 3
Расширение режима : CM (complete main)
Режим смешивания : Header stripping
Идентификатор кодека : A_AC3
Продолжительность : 1 ч. 35 м.
Вид битрейта : Постоянный
Битрейт : 448 Кбит/сек
Каналы : 6 каналов
Расположение каналов : Front: L C R, Side: L R, LFE
Частота : 48,0 КГц
Битовая глубина : 16 бит
Метод сжатия : С потерями
Размер потока : 307 Мбайт (14%)
Заголовок : MVO(CEE)
Язык : Russian
Default : Да
Forced : Нет

Текст #1
Идентификатор : 3
Формат : UTF-8
Идентификатор кодека : S_TEXT/UTF8
Идентификатор кодека/Информация : UTF-8 Plain Text
Язык : Russian
Default : Да
Forced : Нет

Текст #2
Идентификатор : 4
Формат : UTF-8
Идентификатор кодека : S_TEXT/UTF8
Идентификатор кодека/Информация : UTF-8 Plain Text
Язык : English
Default : Нет
Forced : Нет

Меню
00:00:00.000 : en:00:00:00.000
00:03:18.824 : en:00:03:18.824
00:09:02.834 : en:00:09:02.834
00:16:05.548 : en:00:16:05.548
00:20:18.676 : en:00:20:18.676
00:24:21.418 : en:00:24:21.418
00:31:14.331 : en:00:31:14.331
00:35:17.907 : en:00:35:17.907
00:40:20.752 : en:00:40:20.752
00:45:36.651 : en:00:45:36.651
00:52:41.075 : en:00:52:41.075
00:58:17.452 : en:00:58:17.452
01:04:26.321 : en:01:04:26.321
01:09:36.422 : en:01:09:36.422
01:16:10.941 : en:01:16:10.941
01:22:41.081 : en:01:22:41.081
01:25:57.986 : en:01:25:57.986
01:31:41.454 : en:01:31:41.454




















Поделиться:




реклама партнёра


Вернуться к началу
 Профиль Отправить личное сообщение  
 
   Похожие торренты   Автор   Торрент   Размер 
В этой теме нет новых непрочитанных сообщений. Банши / Banshee [S01] [боевик, триллер, драма, криминал, детектив, 2014] HDRip, Mvo [Amedia]

Dracon

458 | 100

4.07 ГБ

В этой теме нет новых непрочитанных сообщений. Обратная тяга / Backdraft [Боевик, триллер, драма, криминал, детектив, 1991] HDRip, Avo

salma3

23 | 1

1.46 ГБ

В этой теме нет новых непрочитанных сообщений. Ганмен / The Gunman (Пьер Морель) [Боевик, Триллер, Драма, Криминал, Детектив, 2014] HDRip, Avo

Dracon

7925 | 48

1.46 ГБ

В этой теме нет новых непрочитанных сообщений. Перекрестный огонь / Bad Country [триллер, драма, детектив, боевик, криминал, 2014] HDRip, Mvo [Лицензия]

Dracon

2 | 2

1.46 ГБ

В этой теме нет новых непрочитанных сообщений. И грянул шторм / The Finest Hours (Крэйг Гиллеспи / Craig Gillespie) [2016г., боевик, триллер, драма, история, WEB-DLRip] dub

Alfredovich

8025 | 630

1.37 ГБ

В этой теме нет новых непрочитанных сообщений. Убийца / Sicario (Дени Вильнёв) [Боевик, триллер, драма, криминал, детектив, 2015] HDRip, dub [Line]

Dracon

2730 | 87

2.08 ГБ

В этой теме нет новых непрочитанных сообщений. Кибер / Blackhat (Майкл Манн) [боевик, триллер, драма, криминал, детектив, 2015] HDRip, Dub [Лицензия]

Dracon

651 | 37

1.46 ГБ


Начать новую тему Ответить на тему  [ 1 сообщение ] 




Для Мосгорсуда, Роскомнадзора и рекламодателей:: mosgorsud-torrent[собачка]yandex.ru