Торрент файл
скачать торрент магнет ссылка Добавлен: 10 янв 2012, 20:16
Размер: 2.07 ГБ
Сидеров: 185
Личеров: 14
Автор

СообщениеДобавлено: 10 янв 2012, 20:16 

Не в сети
Супермодератор
Аватара пользователя
Дата регистрации:
11 апр 2010, 18:10
Спасибо: 5801 / 7
Сообщения: 56779
[b]Коломбиана / Colombiana[/b]



Перевод: Профессиональный (полное дублирование)
Субтитры: отсутствуют
Формат: HDRip-AVC, MKV, H.264, AC3

Страна:США, Франция

Режиссер: Оливье Мегатон
Жанр: боевик, триллер, драма, приключения
Продолжительность: 01:43:27
Год выпуска: 2011

В ролях: Зои Салдана, Амендла Стенберг, Майкл Вартан, Клифф Кёртис, Каллум Блу, Жорди Молья, Макс Мартини, Ленни Джеймс, Грэм МакТавиш, Моника Акоста.

Описание: Кат было всего десять, когда на ее глазах неизвестные жестоко убили ее родителей. Девочка сумела убежать от бандитов и найти убежище в Чикаго у своего дяди. Теперь Кат профессиональный убийца. Во что бы то ни стало она должна распутать клубок давнего преступления и отомстить за смерть родителей. Все следы ведут к колумбийскому наркобарону Дону Лусиа. Единственная нить, соединяющая девушку-убийцу с миром обычных людей — это ее возлюбленный, который не догадывается, чем на самом деле занимается его подружка…



Видео: 1024x432 (2.35:1), 23.976 fps, AVC MPEG-4 , ~2126 kbps avg, 0.20 bit/pixel
Аудио #1: русский48 kHz, AC3 Dolby Digital, 3/2 (L,C,R,l,r) + LFE ch, ~384 kbps avg [Профессиональный (полное дублирование)]
Аудио #2: английский48 kHz, AC3 Dolby Digital, 3/2 (L,C,R,l,r) + LFE ch, ~384 kbps avg [оригинал]

Релиз группы

Рип от: S.I.D __


General
Unique ID: 212147754101416282396243863230488369710 (0x9F9A2BD574EE9C168E81C04ABDF9DA2E)
Complete name: D:\Мои рипы\Colombiana 2011.D.HDRip.mkv
Format: Matroska
Format version: Version 2
File size: 2.07 GiB
Duration: 1h 43mn
Overall bit rate: 2 858 Kbps
Movie name: Colombiana.S.I.D
Encoded date: UTC 2011-12-16 13:03:24
Writing application: mkvmerge v2.9.8 ('C'est le bon') built on Aug 13 2009 12:49:06
Writing library: libebml v0.7.7 + libmatroska v0.8.1

Video
ID: 1
Format: AVC
Format/Info: Advanced Video Codec
Format profile:
Format settings, CABAC: Yes
Format settings, ReFrames: 8 frames
Codec ID: V_MPEG4/ISO/AVC
Duration: 1h 43mn
Bit rate: 2 126 Kbps
Width: 1 024 pixels
Height: 432 pixels
Display aspect ratio: 2.35:1
Frame rate: 23.976 fps
Color space: YUV
Chroma subsampling: 4:2:0
Bit depth: 8 bits
Scan type: Progressive
Bits/(Pixel*Frame): 0.200
Stream size: 1.47 GiB (71%)
Title: RG Films Tfile
Writing library: x264 core 119 r2106 07efeb4
Encoding settings: cabac=1 / ref=8 / deblock=1:-1:-1 / analyse=0x3:0x111 / me=umh / subme=0 / psy=1 / psy_rd=1.00:0.10 / mixed_ref=1 / me_range=16 / chroma_me=1 / trellis=2 / 8x8dct=1 / cqm=0 / deadzone=21,11 / fast_pskip=0 / chroma_qp_offset=-1 / threads=6 / sliced_threads=0 / nr=0 / decimate=1 / interlaced=0 / bluray_compat=0 / constrained_intra=0 / bframes=8 / b_pyramid=2 / b_adapt=2 / b_bias=0 / direct=1 / weightb=1 / open_gop=0 / weightp=2 / keyint=250 / keyint_min=23 / scenecut=40 / intra_refresh=0 / rc_lookahead=40 / rc=abr / mbtree=1 / bitrate=2126 / ratetol=1.0 / qcomp=0.60 / qpmin=0 / qpmax=69 / qpstep=4 / ip_ratio=1.40 / aq=1:1.00
Language: English
Default: Yes
Forced: No

Audio #1
ID: 2
Format: AC-3
Format/Info: Audio Coding 3
Mode extension: CM (complete main)
Codec ID: A_AC3
Duration: 1h 43mn
Bit rate mode: Constant
Bit rate: 384 Kbps
Channel(s): 6 channels
Channel positions: Front: L C R, Side: L R, LFE
Sampling rate: 48.0 KHz
Bit depth: 16 bits
Compression mode: Lossy
Stream size: 284 MiB (13%)
Title: Дубляж
Language: Russian
Default: Yes
Forced: No

Audio #2
ID: 3
Format: AC-3
Format/Info: Audio Coding 3
Mode extension: CM (complete main)
Codec ID: A_AC3
Duration: 1h 43mn
Bit rate mode: Constant
Bit rate: 384 Kbps
Channel(s): 6 channels
Channel positions: Front: L C R, Side: L R, LFE
Sampling rate: 48.0 KHz
Bit depth: 16 bits
Compression mode: Lossy
Stream size: 284 MiB (13%)
Title: Оригинал
Language: English
Default: No
Forced: No










Поделиться:




реклама партнёра


Вернуться к началу
 Профиль Отправить личное сообщение  
 
   Похожие торренты   Автор   Торрент   Размер 
В этой теме нет новых непрочитанных сообщений. Коломбиана / Colombiana (Оливье Мегатон) [2011, боевик, триллер, драма, криминал, BDRip 720p] Dub

Nickolas3435

81 | 9

7.29 ГБ

В этой теме нет новых непрочитанных сообщений. Заложница 3 / Taken 3 (Оливье Мегатон) [боевик, триллер, драма, криминал, 2012] HDRip, dub [чистый звук / EXTENDED]

Dracon

7 | 4

1.37 ГБ

В этой теме нет новых непрочитанных сообщений. Заложница 3 /  Taken 3 (Оливье Мегатон) [Боевик, Триллер, 2014] CAMRip, dub

Dracon

110 | 16

1.37 ГБ

В этой теме нет новых непрочитанных сообщений. Заложница 3 / Taken 3 (Оливье Мегатон) [Боевик, Триллер, 2014] HDTVRip, dub [Звук с CAMRip]

Dracon

951 | 7

1.37 ГБ

В этой теме нет новых непрочитанных сообщений. Заложница 3 / Taken 3 (Оливье Мегатон) [Боевик, Триллер, 2014] HDTVRip, dub [Чистый звук]

Dracon

114 | 4

2.05 ГБ

В этой теме нет новых непрочитанных сообщений. Заложница 3 / Taken 3 (Оливье Мегатон) [Боевик, Триллер, 2014] HDTVRip, dub [Чистый звук]

Dracon

29 | 3

1.37 ГБ

В этой теме нет новых непрочитанных сообщений. Заложница 3 / Taken 3 (Оливье Мегатон) [Боевик, Триллер, 2014] HDTVRip, dub [Чистый звук]

Dracon

5 | 3

700.54 МБ


Начать новую тему Ответить на тему  [ 1 сообщение ] 




Для Мосгорсуда, Роскомнадзора и рекламодателей:: mosgorsud-torrent[собачка]yandex.ru