Торрент файл
скачать торрент магнет ссылка Добавлен: 10 янв 2012, 20:15
Размер: 3.16 ГБ
Сидеров: 21
Личеров: 11
Автор

СообщениеДобавлено: 10 янв 2012, 20:15 

Не в сети
Супермодератор
Аватара пользователя
Дата регистрации:
11 апр 2010, 18:10
Спасибо: 5799 / 7
Сообщения: 56779
Красный Барон / Der rote Baron


Перевод: Профессиональный (многоголосый, закадровый), cубтитры: Русские, Английские, Немецкие (полные, отключаемые)
Формат: HDRip, MKV, H.264, AC3
Страна: Германия, Великобритания
Режиссер: Николай Мюллершён
Жанр: военный, биография, боевик, драма
Продолжительность: 02:09:19
Год выпуска: 2008
В ролях: Маттиас Швайгхефер, Максим Мехмет, Ханно Коффлер, Тиль Швайгер, Ричард Крайчо, Джозеф Файнс, Стеффен Шредер
Описание: Барон Манфред фон Рихтгофен является самым опасным и знаменитым пилотом военно-воздушных сил Германии в Первой мировой войне. Для него и его соратников воздушные бои являются спортивным состязанием, техническим вызовом и почётной обязанностью, несмотря на весь ужас войны. Но после того как он влюбился в медсестру Кейт, Манфред понимает, что он используется только как средство пропаганды. Выбирая между его ненавистью к войне и ответственностью за его отряд истребителей, фон Рихтгофен решается лететь снова…

Видео: 1280x544 (2,35:1), 23,976 fps, MPEG4 AVC (х264), ~1917 kbps avg, 0.115 bit/pixel
Аудио#1:Русский: 48 kHz,AC-3, 6 ch, ~384.00 kbps avg [Профессиональный (многоголосый, закадровый)]
Аудио#2:Русский: 48 kHz,AC-3, 6 ch, ~384.00 kbps avg [Внешним файлом: Авторский (одноголосый) (Юрий Живов)]
Аудио#3:Английский: 48 kHz,AC-3, 6 ch, ~384.00 kbps avg [Внешним файлом: Дублированный]
Аудио#4:Немецкий: 48 kHz,AC-3, 6 ch, ~384.00 kbps avg [Внешним файлом: Оригинал]


Автор РИПа:

Информация из Википедии

Общее
Уникальный идентификатор : 218564407386019065686108419692819058991 (0xA46DF9442770BCAD9EE2BA5774BB112F)
Полное имя : f:\Downloads\der_rote_baron_[tfile.ru]\der_rote_baron_[tfile.ru].mkv
Формат : Matroska
Версия формата : Version 2
Размер файла : 2,12 Гбайт
Продолжительность : 2 ч. 9 м.
Общий поток : 2348 Кбит/сек
Дата кодирования : UTC 2011-12-17 00:36:45
Программа кодирования : mkvmerge v4.6.0 ('Still Crazy After All These Years') сборка от Mar 10 2011 02:50:32
Библиотека кодирования : libebml v1.2.0 + libmatroska v1.1.0

Видео
Идентификатор : 1
Формат : AVC
Формат/Информация : Advanced Video Codec
Профиль формата :
Параметр CABAC формата : Да
Параметр ReFrames формата : 3 кадра
Режим смешивания : Header stripping
Идентификатор кодека : V_MPEG4/ISO/AVC
Продолжительность : 2 ч. 9 м.
Битрейт : 1917 Кбит/сек
Ширина : 1280 пикселей
Высота : 544 пикселя
Соотношение сторон : 2,35:1
Режим частоты кадров : Переменный
Частота кадров : 23,976 кадра/сек
Цветовое пространство : YUV
Субдискретизация насыщенности : 4:2:0
Битовая глубина : 8 бит
Тип развёртки : Прогрессивная
Бит/(Пиксели*Кадры) : 0.115
Размер потока : 1,73 Гбайт (82%)
Библиотека кодирования : x264 core 116 r2019M 9cc407d
Настройки программы : cabac=1 / ref=3 / deblock=1:-1:-1 / analyse=0x3:0x133 / me=hex / subme=7 / psy=1 / psy_rd=1.00:0.15 / mixed_ref=1 / me_range=16 / chroma_me=1 / trellis=1 / 8x8dct=1 / cqm=0 / deadzone=21,11 / fast_pskip=1 / chroma_qp_offset=-3 / threads=8 / sliced_threads=0 / nr=0 / decimate=1 / interlaced=0 / bluray_compat=0 / constrained_intra=0 / bframes=3 / b_pyramid=1 / b_adapt=2 / b_bias=0 / direct=3 / weightb=1 / open_gop=0 / weightp=2 / keyint=230 / keyint_min=23 / scenecut=40 / intra_refresh=0 / rc_lookahead=40 / rc=crf / mbtree=1 / crf=22.0 / qcomp=0.60 / qpmin=10 / qpmax=51 / qpstep=4 / vbv_maxrate=31250 / vbv_bufsize=31250 / crf_max=30.0 / nal_hrd=none / ip_ratio=1.40 / aq=1:1.00
Язык : German
Default : Да
Forced : Нет

Аудио
Идентификатор : 2
Формат : AC-3
Формат/Информация : Audio Coding 3
Расширение режима : CM (complete main)
Режим смешивания : Header stripping
Идентификатор кодека : A_AC3
Продолжительность : 2 ч. 9 м.
Вид битрейта : Постоянный
Битрейт : 384 Кбит/сек
Каналы : 6 каналов
Расположение каналов : Front: L C R, Side: L R, LFE
Частота : 48,0 КГц
Битовая глубина : 16 бит
Метод сжатия : С потерями
Размер потока : 355 Мбайт (16%)
Заголовок : MVO
Язык : Russian
Default : Да
Forced : Нет

Текст #1
Идентификатор : 3
Формат : UTF-8
Идентификатор кодека : S_TEXT/UTF8
Идентификатор кодека/Информация : UTF-8 Plain Text
Язык : Russian
Default : Да
Forced : Нет

Текст #2
Идентификатор : 4
Формат : UTF-8
Идентификатор кодека : S_TEXT/UTF8
Идентификатор кодека/Информация : UTF-8 Plain Text
Язык : German
Default : Нет
Forced : Нет

Текст #3
Идентификатор : 5
Формат : UTF-8
Идентификатор кодека : S_TEXT/UTF8
Идентификатор кодека/Информация : UTF-8 Plain Text
Язык : English
Default : Нет
Forced : Нет




















Поделиться:




реклама партнёра


Вернуться к началу
 Профиль Отправить личное сообщение  
 
   Похожие торренты   Автор   Торрент   Размер 
В этой теме нет новых непрочитанных сообщений. Красный барон / Der Rote Baron [боевик, драма, военный, биография, 2008] HDRip, Dvo

salma3

32 | 4

1.45 ГБ

В этой теме нет новых непрочитанных сообщений. Охотники за сокровищами / The Monuments Men [боевик, драма, военный, биография, 2014] HDRip, dub [лицензия]

Dracon

133 | 5

2.18 ГБ

В этой теме нет новых непрочитанных сообщений. Охотники за сокровищами / The Monuments Men [боевик, драма, военный, биография, 2014] HDRip, dub [лицензия]

Dracon

1559 | 44

1.46 ГБ

В этой теме нет новых непрочитанных сообщений. Снайпер / American Sniper (Клинт Иствуд) [боевик, драма, военный, биография, 2014] HDRip, Dub [iTunes]

Dracon

5 | 1

1.37 ГБ

В этой теме нет новых непрочитанных сообщений. Свободный штат Джонса / Free State of Jones [Боевик, драма, военный, биография, история, 2016] HDRip, Мvo

salma3

2282 | 381

1.37 ГБ

В этой теме нет новых непрочитанных сообщений. Как правильно расстреливать (Штрафбат, Николай Досталь, 2004) [ Боевик, драма, военный, 2013] WEBRip

vairgin

2 | 2

345.28 МБ

В этой теме нет новых непрочитанных сообщений. The Baron's Whores / Les Putains du Baron / Шлюхи Барона (Gazzman / Marc Dorcel) (Ash Hollywood, Chintya Doll, Dani Daniels, Samantha Bentley, Tiffany Doll...) [2014 г., Anal, DP, Hardcore, WEB-DL 1080p]

friizze

21 | 11

3.83 ГБ


Начать новую тему Ответить на тему  [ 1 сообщение ] 




Для Мосгорсуда, Роскомнадзора и рекламодателей:: mosgorsud-torrent[собачка]yandex.ru