Торрент файл
скачать торрент магнет ссылка Добавлен: 10 янв 2012, 20:12
Размер: 2.18 ГБ
Сидеров: 561
Личеров: 40
Автор

СообщениеДобавлено: 10 янв 2012, 20:12 

Не в сети
Супермодератор
Аватара пользователя
Дата регистрации:
11 апр 2010, 18:10
Спасибо: 5799 / 7
Сообщения: 56779
Шерлок Холмс / Sherlock Holmes


Перевод: Профессиональный (полное дублирование), cубтитры: отсутствуют
Формат: HDRip-AVC, MKV, H.264, AC3
Страна: США, Германия, Великобритания
Режиссер: Гай Ричи
Жанр: Боевик, триллер, комедия
Продолжительность: 02:08:25
Год выпуска: 2009
В ролях: Роберт Дауни мл., Джуд Лоу, Рэйчел МакАдамс, Марк Стронг, Эдди Марсан, Роберт Мэйллет, Джеральдин Джеймс, Келли Райлли, Уильям Хьюстон, Хэнс Мэтисон
Описание: Величайший в истории сыщик Шерлок Холмс вместе со своим верным соратником Ватсоном вступают в схватку, требующую нешуточной физической и умственной подготовки, ведь их враг представляет угрозу для всего Лондона.

Видео: 1280х720 (16:9), 23,976 fps, AVC (х264), , ~ 2060 Kbps, 0.093 bit/pixel
Аудио: 48 kHz, AC3 Dolby Digital, 3/2 (L,C,R,l,r) + LFE ch, ~ 384 kbps
Релиз от Dean24
Релиз группы


Видео:
Идентификатор: 1
Формат: AVC
Формат/Информация: Advanced Video Codec
Профиль формата:
Параметр CABAC формата: Да
Параметр ReFrames формата: 8 кадров
Идентификатор кодека: V_MPEG4/ISO/AVC
Продолжительность: 2 ч. 8 м.
Битрейт: 2060 Кбит/сек
Ширина: 1280 пикс.
Высота: 720 пикс.
Соотношение сторон: 16:9
Режим частоты кадров: Переменный
Частота кадров: 23,976 кадр/сек
Цветовое пространство: YUV
Подвыборка цветности: 4:2:0
Битовая глубина: 8 бит
Тип развёртки: Прогрессивная
Бит/(Пиксели*Кадры): 0.093
Размер потока: 1,79 Гбайт (82%)
Библиотека кодирования: x264 core 116 r2019M 9cc407d
Настройки программы: cabac=1 / ref=9 / deblock=1:-2:-2 / analyse=0x3:0x133 / me=hex / subme=9 / psy=1 / psy_rd=1.00:0.20 / mixed_ref=1 / me_range=16 / chroma_me=1 / trellis=1 / 8x8dct=1 / cqm=0 / deadzone=21,11 / fast_pskip=1 / chroma_qp_offset=-3 / threads=6 / sliced_threads=0 / nr=0 / decimate=1 / interlaced=0 / bluray_compat=0 / constrained_intra=0 / bframes=9 / b_pyramid=1 / b_adapt=2 / b_bias=0 / direct=3 / weightb=1 / open_gop=0 / weightp=2 / keyint=230 / keyint_min=23 / scenecut=40 / intra_refresh=0 / rc_lookahead=40 / rc=abr / mbtree=1 / bitrate=2060 / ratetol=1.0 / qcomp=0.60 / qpmin=0 / qpmax=69 / qpstep=4 / ip_ratio=1.40 / aq=1:1.00
Язык: English

Аудио:
Идентификатор: 2
Формат: AC-3
Формат/Информация: Audio Coding 3
Расширение режима: CM (complete main)
Идентификатор кодека: A_AC3
Продолжительность: 2 ч. 8 м.
Вид битрейта: Постоянный
Битрейт: 384 Кбит/сек
Каналы: 6 каналов
Расположение каналов: Front: L C R, Side: L R, LFE
Частота: 48,0 КГц
Битовая глубинa: 16 бит
Метод сжатия: С потерями
Размер потока: 353 Мбайт (16%)
Язык: Russian









Поделиться:




реклама партнёра


Вернуться к началу
 Профиль Отправить личное сообщение  
 
   Похожие торренты   Автор   Торрент   Размер 
В этой теме нет новых непрочитанных сообщений. Мистер Холмс / Mr. Holmes (Билл Кондон) [Драма, криминал, детектив, 2015] HDRip, Mvo

Dracon

998 | 33

1.37 ГБ

В этой теме нет новых непрочитанных сообщений. Мистер Холмс / Mr. Holmes (Билл Кондон / Bill Condon) [2015г., Великобритания, драма, детектив, HDRip] Sub

Alfredovich

9 | 0

1.41 ГБ

В этой теме нет новых непрочитанных сообщений. Эркюль и Шерлок против мафии / Hercule et Sherlock [Комедия, 1996] DVDRip, Mvo

salma3

0 | 5

1.43 ГБ

В этой теме нет новых непрочитанных сообщений. Шерлок Холмс и доктор Ватсон: Королевский скандал / The Royal Scandal [триллер, детектив, 2001] DVDRip, Mvo

salma3

111 | 9

1.46 ГБ

В этой теме нет новых непрочитанных сообщений. Шерлок Бонд: Пес-детектив / Sherlock: Undercover Dog [комедия, приключения, семейный, 1994] DVDRip, Mvo

salma3

5 | 5

677.07 МБ

В этой теме нет новых непрочитанных сообщений. Частная жизнь Шерлока Холмса / The Private Life of Sherlock Holmes [Комедия, детектив, 1970] BDRip 720p, Mvo+2Dvo+Avo+Sub

salma3

15 | 6

7.08 ГБ

В этой теме нет новых непрочитанных сообщений. Приключения хитроумного брата Шерлока Холмса / The Adventure of Sherlock Holmes' Smarter Brother [комедия, 1975] BDRip 720p, Mvo

salma3

50 | 7

4.62 ГБ


Начать новую тему Ответить на тему  [ 1 сообщение ] 




Для Мосгорсуда, Роскомнадзора и рекламодателей:: mosgorsud-torrent[собачка]yandex.ru