Торрент файл
скачать торрент магнет ссылка Добавлен: 10 янв 2012, 20:12
Размер: 1.45 ГБ
Сидеров: 194
Личеров: 14
Автор

СообщениеДобавлено: 10 янв 2012, 20:12 

Не в сети
Супермодератор
Аватара пользователя
Дата регистрации:
11 апр 2010, 18:10
Спасибо: 5798 / 7
Сообщения: 56779
Профессионал / Killer Elite



Перевод: Профессиональный (полное дублирование), cубтитры: отсутствуют
Формат: HDRip-AVC, MKV, H.264, AC3
Страна: США, Австралия
Режиссер: Гэри МакКендри
Жанр: боевик, триллер
Продолжительность: 01:56:42
Год выпуска: 2011

В ролях: Джейсон Стэтхэм, Клайв Оуэн, Роберт Де Ниро, Ивонн Страховски, Доминик Пурселл, Адевале Акиннуойе-Агбадже, Майкл Дорман, Грант Боулер, Бен Мендельсон, Кристи Барнс Каллен

Описание: Бывшему бойцу британских силовых структур приходится забыть о тихой размеренной жизни отставника, когда его лучший друг оказывается в опасности.



Видео: 864 x 360 (2:40:1), 23.976 fps, AVC (х264) , ~ 1399 Kbps, 0.188 bit/pixel
Аудио: 48 kHz, AC3 Dolby Digital, 3/2 (L,C,R,l,r) + LFE ch, ~384 kbps avg


Рип: jeenart

General
Unique ID: 196608501731798858929165111057244450978 (0x93E96B8A679A61EF9FA698D5E7AF70A2)
Complete name: F:\Мои релизы\Все релизы 10\profesional_[tfile.ru].mkv
Format: Matroska
File size: 1.45 GiB
Duration: 1h 56mn
Overall bit rate: 1 785 Kbps
Encoded date: UTC 2012-01-02 16:36:54
Writing application: mkvmerge v4.6.0 ('Still Crazy After All These Years') сборка от Apr1 2011 21:01:49
Writing library: libebml v1.2.0 + libmatroska v1.1.0

Video
ID: 1
Format: AVC
Format/Info: Advanced Video Codec
Format profile:
Format settings, CABAC: Yes
Format settings, ReFrames: 4 frames
Codec ID: V_MPEG4/ISO/AVC
Duration: 1h 56mn
Bit rate: 1 399 Kbps
Width: 864 pixels
Height: 360 pixels
Display aspect ratio: 2.40:1
Frame rate: 23.976 fps
Color space: YUV
Chroma subsampling: 4:2:0
Bit depth: 8 bits
Scan type: Progressive
Bits/(Pixel*Frame): 0.188
Stream size: 1.11 GiB (76%)
Writing library: x264 core 115 r1937 aa21558
Encoding settings: cabac=1 / ref=3 / deblock=1:-1:-1 / analyse=0x3:0x113 / me=hex / subme=7 / psy=1 / psy_rd=1.00:0.10 / mixed_ref=1 / me_range=16 / chroma_me=1 / trellis=1 / 8x8dct=1 / cqm=0 / deadzone=21,11 / fast_pskip=1 / chroma_qp_offset=-3 / threads=6 / sliced_threads=0 / nr=0 / decimate=1 / interlaced=0 / bluray_compat=0 / constrained_intra=0 / bframes=3 / b_pyramid=2 / b_adapt=1 / b_bias=0 / direct=3 / weightb=1 / open_gop=0 / weightp=2 / keyint=250 / keyint_min=23 / scenecut=40 / intra_refresh=0 / rc_lookahead=40 / rc=2pass / mbtree=1 / bitrate=1399 / ratetol=1.0 / qcomp=0.60 / qpmin=0 / qpmax=69 / qpstep=4 / cplxblur=20.0 / qblur=0.5 / ip_ratio=1.40 / aq=1:1.00

Audio
ID: 2
Format: AC-3
Format/Info: Audio Coding 3
Mode extension: CM (complete main)
Codec ID: A_AC3
Duration: 1h 56mn
Bit rate mode: Constant
Bit rate: 384 Kbps
Channel(s): 6 channels
Channel positions: Front: L C R, Side: L R, LFE
Sampling rate: 48.0 KHz
Bit depth: 16 bits
Compression mode: Lossy
Stream size: 321 MiB (22%)

















Поделиться:




реклама партнёра


Вернуться к началу
 Профиль Отправить личное сообщение  
 
   Похожие торренты   Автор   Торрент   Размер 
В этой теме нет новых непрочитанных сообщений. Я не серийный убийца / I Am Not a Serial Killer [триллер, 2016] HDRip, Avo

salma3

97 | 1

1.25 ГБ

В этой теме нет новых непрочитанных сообщений. Праздник для убийцы / Killer Holiday [ужасы, триллер, 2013] HDRip, Dvo

salma3

478 | 36

1.37 ГБ

В этой теме нет новых непрочитанных сообщений. Sniper Elite III [v.1.06 +9 DLC] [Action, 3D, 2014] [Rip]

Dracon

45 | 6

8.16 ГБ

В этой теме нет новых непрочитанных сообщений. Sniper Elite 3 [+4 DLC] [Action, 3D, 2014] [Rip]

Dracon

3241 | 918

8.85 ГБ

В этой теме нет новых непрочитанных сообщений. Кролик-убийца / Bunny the Killer Thing [ужасы, боевик, комедия, 2015] HDRip, Avo

salma3

0 | 0

1.46 ГБ

В этой теме нет новых непрочитанных сообщений. Sniper Elite III [v.1.09 +11 DLC] [Action, 3D, 2014] [Патч]

Dracon

20 | 12

6.01 ГБ

В этой теме нет новых непрочитанных сообщений. Sniper Elite 3 [Action, 3D, 2014] [Steam-Rip]

Dracon

699 | 129

17.91 ГБ


Начать новую тему Ответить на тему  [ 1 сообщение ] 




Для Мосгорсуда, Роскомнадзора и рекламодателей:: mosgorsud-torrent[собачка]yandex.ru