Торрент файл
скачать торрент магнет ссылка Добавлен: 10 янв 2012, 20:12
Размер: 1.48 ГБ
Сидеров: 220
Личеров: 32
Автор

СообщениеДобавлено: 10 янв 2012, 20:12 

Не в сети
Супермодератор
Аватара пользователя
Дата регистрации:
11 апр 2010, 18:10
Спасибо: 5801 / 7
Сообщения: 56779
[b]Лузеры / The Losers[/b]



Перевод: Профессиональный (многоголосый закадровый)
Субтитры: отсутствуют
Формат: HDRip-AVC, MKV, H.264, AC3

Страна:США

Режиссер: Сильвен Уайт
Жанр: боевик, триллер, комедия, криминал, детектив, приключения
Продолжительность:
Год выпуска: 2010

В ролях: Джеффри Дин Морган, Зои Салдана, Крис Эванс, Идрис Эльба, Коламбус Шорт, Оскар Хаенада, Джейсон Патрик, Холт МакКэллани, Питер Макдисси, Питер Френсис Джеймс.

Описание: «Лузеры» — сумасшедший экшн о предательстве и мести, рассказывающий о членах элитного отряда специального назначения, которых отправили в джунгли Боливии. Им поставили задачу «найти и уничтожить», но на месте выясняется, что команду — Клэя, Дженсена, Рока, Пуча и Кугара — подставили, и они попали под перекрестный огонь двух противоборствующих лагерей. Смертельное противостояние было спровоцировано изнутри могущественным врагом, о котором известно лишь одно: его имя — Макс.

Решив сыграть на том, что они числятся погибшими, члены отряда уходят в глубокое подполье и составляют опасный план по восстановлению своей репутации и сведению счетов с Максом. К ним присоединяется загадочная Аиша — красавица-агент, работающая по заданию, но вполне способная внести коррективы в заданный сверху план. В перерывах между разборками друг с другом им необходимо всегда оставаться на шаг впереди разъезжающего по всему миру Макса — беспощадного негодяя, намеревающегося втянуть мир в новую высокотехнологичную мировую войну только ради собственной выгоды. Если они смогут победить Макса и одновременно спасти мир, это будет настоящей удачей для команды, известной теперь как ЛУЗЕРЫ.




Видео: 1024x432 (2.35:1), 23.976 fps, AVC MPEG-4 ~1827 kbps avg, 0.172 bit/pixel
Аудио: 48 kHz, AC3 Dolby Digital, 3/2 (L,C,R,l,r) + LFE ch, ~384 kbps avg

Рип от: S.I.D 'a __


General
Unique ID: 170681557099627032066534512047597911051 (0x8068127A35D60EDA94ADC1635C057C0B)
Complete name: D:\Мои рипы\Luzery.2010.D.HDRip.mkv
Format: Matroska
Format version: Version 2
File size: 1.48 GiB
Duration: 1h 37mn
Overall bit rate: 2 185 Kbps
Movie name: Luzery.S.I.D
Encoded date: UTC 2012-01-06 11:50:41
Writing application: mkvmerge v2.9.8 ('C'est le bon') built on Aug 13 2009 12:49:06
Writing library: libebml v0.7.7 + libmatroska v0.8.1

Video
ID: 1
Format: AVC
Format/Info: Advanced Video Codec
Format profile:
Format settings, CABAC: Yes
Format settings, ReFrames: 8 frames
Codec ID: V_MPEG4/ISO/AVC
Duration: 1h 37mn
Bit rate: 1 827 Kbps
Width: 1 024 pixels
Height: 432 pixels
Display aspect ratio: 2.35:1
Frame rate: 23.976 fps
Color space: YUV
Chroma subsampling: 4:2:0
Bit depth: 8 bits
Scan type: Progressive
Bits/(Pixel*Frame): 0.172
Stream size: 1.19 GiB (80%)
Writing library: x264 core 119 r2106 07efeb4
Encoding settings: cabac=1 / ref=8 / deblock=1:-3:-3 / analyse=0x3:0x111 / me=umh / subme=0 / psy=1 / psy_rd=1.00:0.10 / mixed_ref=1 / me_range=16 / chroma_me=1 / trellis=2 / 8x8dct=1 / cqm=0 / deadzone=21,11 / fast_pskip=0 / chroma_qp_offset=-1 / threads=6 / sliced_threads=0 / nr=0 / decimate=1 / interlaced=0 / bluray_compat=0 / constrained_intra=0 / bframes=5 / b_pyramid=2 / b_adapt=2 / b_bias=0 / direct=1 / weightb=1 / open_gop=0 / weightp=2 / keyint=250 / keyint_min=23 / scenecut=40 / intra_refresh=0 / rc_lookahead=50 / rc=abr / mbtree=1 / bitrate=1827 / ratetol=1.0 / qcomp=0.60 / qpmin=0 / qpmax=69 / qpstep=4 / ip_ratio=1.40 / aq=1:1.00
Language: English
Default: Yes
Forced: No

Audio
ID: 2
Format: AC-3
Format/Info: Audio Coding 3
Mode extension: CM (complete main)
Codec ID: A_AC3
Duration: 1h 37mn
Bit rate mode: Constant
Bit rate: 384 Kbps
Channel(s): 6 channels
Channel positions: Front: L C R, Side: L R, LFE
Sampling rate: 48.0 KHz
Bit depth: 16 bits
Compression mode: Lossy
Stream size: 266 MiB (18%)
Title: дублирование
Language: Russian
Default: Yes
Forced: No










Поделиться:




реклама партнёра


Вернуться к началу
 Профиль Отправить личное сообщение  
 
   Похожие торренты   Автор   Торрент   Размер 
В этой теме нет новых непрочитанных сообщений. Отряд самоубийц / Suicide Squad ( Фантастика, боевик, триллер, комедия, криминал, приключения, 2016) HDRip от MegaPeer | Расширенная версия | A

marya111

99 | 29

796.32 МБ

В этой теме нет новых непрочитанных сообщений. Боевик Джексон / Action Jackson [боевик, триллер, комедия, криминал, 1988] BDRip 1080p, Dub+Mvo+Avo

salma3

31 | 34

10.82 ГБ

В этой теме нет новых непрочитанных сообщений. Боевик Джексон / Action Jackson [боевик, триллер, комедия, криминал, 1988] BDRip 720p, Dub+Mvo+Avo

salma3

44 | 7

9.35 ГБ

В этой теме нет новых непрочитанных сообщений. Мой Аттила Марсель / Attila Marcel (Сильвен Шомэ / Sylvain Chomet) [2013г., комедия, HDRip] DUB

Alfredovich

143 | 7

2.05 ГБ

В этой теме нет новых непрочитанных сообщений. Недооформлен Нерв / Nerve (триллер, криминал, детектив, приключения, 2016) HDRip от Portablius | Line Данный торрент является блокированным, причина: недооформленный торрент

marya111

0 | 0

746.15 МБ

В этой теме нет новых непрочитанных сообщений. Эль-Ниньо / El Nino (Даниэль Монсон) [Боевик, Детектив, Криминал, Триллер, 2014] HDRip, dvo

Dracon

12 | 2

1.37 ГБ

В этой теме нет новых непрочитанных сообщений. Обратная тяга / Backdraft [Боевик, триллер, драма, криминал, детектив, 1991] HDRip, Avo

salma3

23 | 1

1.46 ГБ


Начать новую тему Ответить на тему  [ 1 сообщение ] 




Для Мосгорсуда, Роскомнадзора и рекламодателей:: mosgorsud-torrent[собачка]yandex.ru