Торрент файл
скачать торрент магнет ссылка Добавлен: 10 янв 2012, 20:01
Размер: 2.17 ГБ
Сидеров: 115
Личеров: 12
Автор

СообщениеДобавлено: 10 янв 2012, 20:01 

Не в сети
Супермодератор
Аватара пользователя
Дата регистрации:
11 апр 2010, 18:10
Спасибо: 5801 / 7
Сообщения: 56779
Падение Черного Ястреба / Black Hawk Down


Перевод: Профессиональный (полное дублирование), cубтитры: отсутствуют
Формат: HDRip-AVC, MKV, H.264, AC3
Страна: США
Режиссер: Ридли Скотт
Жанр: боевик, драма, военный, история
Продолжительность: 02:24:17
Год выпуска: 2001

В ролях: Джош Хартнетт, Эрик Бана, Эван МакГрегор, Том Сайзмор, Уиллиам Фичтнер, Сэм Шепард, Ивэн Бремнер, Чарли Хофхеймер, Том Харди, Том Гири, Джейсон Айзэкс, Брайан ван Холт, Джереми Пивен, Орландо Блум, Ким Коутс

Описание: Сомали, 1993 год. Страна вымирает от голода, число жертв превысило триста тысяч человек. Миротворческие силы ООН пытаются восстановить порядок и организовать поставки продовольствия. В помощь им Вашингтон выслал полтысячи человек из элитных подразделений американской армии, знаменитые отряды «Дельта» и армейских рейнджеров.

В городе Магадишо хозяйничает и творит беспредел полевой командир Айдид, убивая мирных граждан и отбирая гуманитарную помощь. В определенный момент орлы из Вашингтона решают провести операцию по захвату Айдида в его резиденции.

Молодой офицер, только что назначенный взводным; матерый сержант, ведущий колонну машин; казарменный писарь, не нюхавший пороху; экипажи сбитых вертолетов, вынужденных ждать подкрепления и эвакуации; пара солдат, которых забыли взять с собой при смене позиции; генерал, сидящий в штабе и наблюдающий со спутника, как погибают его солдаты…




Видео: 1024х432 (2.35:1), 24 fps, AVC х264, ~1 713 Kbps avg, 0.162 bit/pixel
Аудио #1: Русский: 48 kHz, AC3 Dolby Digital, 3/2 (L,C,R,l,r) + LFE ch, ~448.00 kbps avg [Полное дублирование]
Интересные факты
>>«Чёрный ястреб» — это название американского военно-транспортного вертолёта UH-60. В ходе сражения в Могадишо было сбито два таких вертолёта.
>>Продюсеры Марио Кассар и Эндрю Вайна предлагали Ридли Скотту стать режиссёром «Терминатора 3», но он предпочёл снять этот фильм.
>>Полная версия фильма имеет хронометраж 152 минуты.
>>В финальных титрах сказано, что Мохаммед Фарах Айдид был убит 2 августа 1996 года, хотя на самом деле он умер на операционном столе 1 августа 1996 года от ранений, полученных неделей ранее.
>>В финальных титрах приводятся имена и фамилии 19 погибших американцев, что является ошибкой, поскольку сержант «Дельты» Мэтт Риерсон погиб не в сражении, а был убит при миномётном обстреле 6 октября.
>>Прототипом героя Юэна МакГрегора является участник описываемых в фильме событий, в 2000 году за домогательства и изнасилование собственной 6-летней дочери приговорённый к 30-летнему заключению военным судом. Имя персонажа в фильме изменено.
Оскар, 2002 год
Победитель (2):
-Лучший звук
-Лучший монтаж
Кассовые сборы
сборы в США $108 638 745
сборы в мире$172 989 651

General
Unique ID : 197609079915714731472219301770620848742 (0x94AA1FDA98611C28B0817AE3BDB84A66)
Complete name : D:\video\black_hawk_down_[tfile.ru].mkv
Format : Matroska
File size : 2.17 GiB
Duration : 2h 24mn
Overall bit rate : 2 156 Kbps
Encoded date : UTC 2010-02-15 05:27:16
Writing application : mkvmerge v2.9.8 ('C'est le bon') built on Aug 24 2009 17:34:03
Writing library : libebml v0.7.7 + libmatroska v0.8.1

Video
ID : 1
Format : AVC
Format/Info : Advanced Video Codec
Format profile :
Format settings, CABAC : Yes
Format settings, ReFrames : 3 frames
Codec ID : V_MPEG4/ISO/AVC
Duration : 2h 24mn
Bit rate : 1 713 Kbps
Width : 1 024 pixels
Height : 432 pixels
Display aspect ratio : 2.35:1
Frame rate : 23.976 fps
Color space : YUV
Chroma subsampling : 4:2:0
Bit depth : 8 bits
Scan type : Progressive
Bits/(Pixel*Frame) : 0.162
Stream size : 1.68 GiB (77%)
Writing library : x264 core 75 r1251kMod e553a4c
Encoding settings : cabac=1 / ref=3 / deblock=1:0:0 / analyse=0x3:0x113 / me=hex / subme=7 / psy=1 / psy_rd=1.0:0.0 / mixed_ref=1 / me_range=16 / chroma_me=1 / trellis=1 / 8x8dct=1 / cqm=0 / deadzone=21,11 / chroma_qp_offset=-2 / threads=3 / nr=0 / decimate=1 / mbaff=0 / bframes=3 / b_pyramid=0 / b_adapt=1 / b_bias=0 / direct=3 / wpredb=1 / keyint=250 / keyint_min=25 / scenecut=40 / rc_lookahead=40 / rc=2pass / mbtree=1 / bitrate=1713 / ratetol=1.0 / qcomp=0.60 / qpmin=10 / qpmax=51 / qpstep=4 / cplxblur=20.0 / qblur=0.5 / ip_ratio=1.40 / aq=1:1.00

Audio
ID : 2
Format : AC-3
Format/Info : Audio Coding 3
Mode extension : CM (complete main)
Codec ID : A_AC3
Duration : 2h 24mn
Bit rate mode : Constant
Bit rate : 448 Kbps
Channel(s) : 6 channels
Channel positions : Front: L C R, Side: L R, LFE
Sampling rate : 48.0 KHz
Bit depth : 16 bits
Compression mode : Lossy
Stream size : 462 MiB (21%)











Поделиться:




реклама партнёра


Вернуться к началу
 Профиль Отправить личное сообщение  
 
   Похожие торренты   Автор   Торрент   Размер 
В этой теме нет новых непрочитанных сообщений. Месть Ястреба / Hawk's Vengeance [Боевик, 1996] HDTVRip 720p, Avo

salma3

14 | 3

2.98 ГБ

В этой теме нет новых непрочитанных сообщений. 1911 / Падение последней империи / Xinhai geming [боевик, драма, приключения, военный, история, 2011] DVD5, Mvo+Sub Лицензия

salma3

7 | 2

4.36 ГБ

В этой теме нет новых непрочитанных сообщений. Исход: Цари и боги / Exodus: Gods and Kings (Ридли Скотт) [боевик, драма, приключения, 2014] HDRip, Dub [iTunes]

Dracon

364 | 5

1.37 ГБ

В этой теме нет новых непрочитанных сообщений. Исход: Цари и боги / Exodus: Gods and Kings (Ридли Скотт) [боевик, драма, приключения, 2014] HDRip, Dub [iTunes]

Dracon

223 | 8

2.05 ГБ

В этой теме нет новых непрочитанных сообщений. Исход: Цари и боги / Exodus: Gods and Kings (Ридли Скотт) [боевик, драма, приключения, 2014] HDRip, Dub [iTunes]

Dracon

167 | 7

2.74 ГБ

В этой теме нет новых непрочитанных сообщений. Исход: Цари и боги / Exodus: Gods and Kings (Ридли Скотт) [боевик, драма, приключения, 2014] WEB-DLRip, dub [Звук с TS]

Dracon

110 | 3

1.37 ГБ

В этой теме нет новых непрочитанных сообщений. Исход: Цари и боги / Exodus: Gods and Kings (Ридли Скотт) [боевик, драма, приключения, 2014] DVD5, Dub+Sub [сжатый]

Dracon

29 | 11

4.37 ГБ


Начать новую тему Ответить на тему  [ 1 сообщение ] 




Для Мосгорсуда, Роскомнадзора и рекламодателей:: mosgorsud-torrent[собачка]yandex.ru